<?xml version="1.0" standalone="no"?>
<!DOCTYPE svg PUBLIC "-//W3C//DTD SVG 1.1//EN" "http://www.w3.org/Graphics/SVG/1.1/DTD/svg11.dtd" >
<svg xmlns="http://www.w3.org/2000/svg">
<metadata></metadata>
<defs>
<font id="quicksanddash" horiz-adv-x="471" >
<font-face units-per-em="2048" ascent="1638" descent="-410" />
<missing-glyph horiz-adv-x="614" />
<glyph horiz-adv-x="0" />
<glyph unicode="&#xd;" horiz-adv-x="2048" />
<glyph unicode=" "  horiz-adv-x="614" />
<glyph unicode="&#x09;" horiz-adv-x="614" />
<glyph unicode="&#xa0;" horiz-adv-x="614" />
<glyph unicode="!" horiz-adv-x="516" d="M190 27v49q0 11 7.5 17.5t19.5 6.5q9 0 17 -7t8 -17v-49q0 -10 -8 -18.5t-17 -8.5q-12 0 -19.5 8t-7.5 19zM190 342v104q0 11 7.5 18t19.5 7q9 0 17 -7.5t8 -17.5v-104q0 -12 -8 -19.5t-17 -7.5q-12 0 -19.5 7.5t-7.5 19.5zM190 549v104q0 12 7.5 19.5t19.5 7.5 q9 0 17 -8t8 -19v-104q0 -10 -8 -17.5t-17 -7.5q-12 0 -19.5 7t-7.5 18zM190 758v102q0 12 7.5 19.5t19.5 7.5q9 0 17 -7.5t8 -19.5v-102q0 -12 -8 -19.5t-17 -7.5q-12 0 -19.5 7.5t-7.5 19.5zM190 965v104q0 11 7.5 18t19.5 7q9 0 17 -7.5t8 -17.5v-104q0 -11 -8 -19 t-17 -8q-12 0 -19.5 7.5t-7.5 19.5zM190 1171v105q0 11 7.5 17.5t19.5 6.5q9 0 17 -7t8 -17v-105q0 -10 -8 -18t-17 -8q-12 0 -19.5 7.5t-7.5 18.5zM190 1378v29q0 11 7.5 19t19.5 8q9 0 17 -8.5t8 -18.5v-29q0 -10 -8 -17t-17 -7q-12 0 -19.5 6.5t-7.5 17.5z" />
<glyph unicode="&#x22;" horiz-adv-x="839" d="M139 1298v13v6v2q0 93 78 113h6q5 0 9 -4t4 -9q5 -10 -11 -18q-34 -9 -49 -43q4 2 12 2q22 0 38 -14.5t16 -34.5q0 -22 -16 -38t-38 -16q-37 0 -47 37q-2 0 -2 4zM291 1298v5v8v8q0 93 78 113h6q4 0 8 -4t4 -9q5 -10 -10 -18q-34 -9 -49 -43q4 2 12 2q22 0 37.5 -14.5 t15.5 -34.5q0 -22 -15.5 -38t-37.5 -16q-37 0 -47 37q-2 0 -2 4z" />
<glyph unicode="#" horiz-adv-x="1433" d="M92 432q0 10 8 18.5t19 8.5h53q10 0 18.5 -8.5t8.5 -18.5t-8 -18t-19 -8h-53q-11 0 -19 8t-8 18zM156 952q0 11 8 19t18 8h54q10 0 18 -8t8 -19q0 -12 -7.5 -20t-18.5 -8h-54q-11 0 -18.5 8t-7.5 20zM252 432q0 10 8 18.5t19 8.5h71l21 106q2 11 11 17.5t19 3.5 q11 -2 17.5 -11.5t3.5 -19.5l-19 -102q11 -11 11 -21t-8 -18t-19 -8h-108q-11 0 -19 8t-8 18zM276 35l19 104q1 12 10.5 18.5t20.5 4.5q10 -1 17 -10.5t5 -20.5l-18 -106q-1 -9 -9.5 -16t-17.5 -7h-4q-26 7 -23 33zM313 246l19 106q3 11 12 17.5t21 5.5q10 -1 16 -10.5 t4 -20.5l-18 -106q-1 -10 -9.5 -16.5t-17.5 -6.5h-4q-10 1 -17.5 10.5t-5.5 20.5zM315 952q0 10 8.5 18.5t18.5 8.5h100l2 10q1 10 10.5 17.5t20.5 5.5q26 -7 23 -33l-19 -105q-3 -22 -26 -22h-4q-10 1 -17.5 10.5t-5.5 20.5l6 41h-90q-11 0 -19 8t-8 20zM389 672l19 104 q1 12 10 18.5t20 4.5q10 -1 17.5 -10.5t5.5 -20.5l-19 -106q-2 -9 -9.5 -16t-16.5 -7h-6q-27 8 -21 33zM463 1096l18 106q8 27 33 21q11 -2 17.5 -11.5t3.5 -19.5l-19 -107q-1 -9 -9.5 -15.5t-17.5 -6.5q-1 0 -2 1t-2 1q-10 1 -17 10.5t-5 20.5zM467 432q0 11 8.5 19t20.5 8 h106q10 0 18.5 -8.5t8.5 -18.5t-8 -18t-19 -8h-106q-12 0 -20.5 7.5t-8.5 18.5zM502 1309l18 104q1 10 10.5 17.5t20.5 5.5q10 -1 17 -10.5t5 -20.5l-20 -107q-4 -22 -25 -22h-6q-26 8 -20 33zM530 952q0 10 8 18.5t19 8.5h109q10 0 18 -8t8 -19q0 -12 -7.5 -20t-18.5 -8 h-109q-11 0 -19 8t-8 20zM653 35l19 104q1 12 10 18.5t20 4.5q12 -1 18.5 -10.5t4.5 -20.5l-18 -106q-1 -9 -9.5 -16t-17.5 -7h-4q-11 3 -17.5 12t-5.5 21zM684 432q0 11 7.5 19t19.5 8h18l19 106q2 11 11 17.5t19 3.5q10 -1 17.5 -10.5t5.5 -20.5l-17 -96h33q12 0 20.5 -8 t8.5 -19t-8.5 -18.5t-20.5 -7.5h-106q-12 0 -19.5 7.5t-7.5 18.5zM690 246l19 106q8 26 32 23q11 -2 17.5 -11.5t3.5 -19.5l-19 -106q-3 -23 -26 -23h-4q-10 1 -17.5 10.5t-5.5 20.5zM745 952q0 11 8.5 19t20.5 8h45l2 10q3 11 12 17.5t21 5.5q23 -7 20 -33h7q10 0 18 -8 t8 -19q0 -12 -7.5 -20t-18.5 -8h-17l-8 -50q-1 -10 -9 -16t-18 -6h-4q-10 1 -17 10.5t-5 20.5l6 41h-35q-12 0 -20.5 8t-8.5 20zM766 672l18 104q1 12 10.5 18.5t20.5 4.5q10 -1 17.5 -10.5t5.5 -20.5l-19 -106q-2 -9 -9.5 -16t-16.5 -7h-5q-25 6 -22 33zM840 1096l20 106 q2 11 11.5 17.5t19.5 3.5q10 -1 17 -10.5t5 -20.5l-20 -107q-4 -22 -27 -22q-2 2 -4 2q-10 1 -17 10.5t-5 20.5zM879 1309l18 104q1 10 10.5 17.5t20.5 5.5q10 -1 17 -10.5t5 -20.5l-18 -107q-1 -9 -9.5 -15.5t-17.5 -6.5h-6q-26 8 -20 33zM899 432q0 10 8.5 18.5t18.5 8.5 h108q10 0 18.5 -8.5t8.5 -18.5t-8 -18t-19 -8h-108q-11 0 -19 8t-8 18zM963 952q0 11 8 19t18 8h107q12 0 20 -8t8 -19q0 -12 -8 -20t-20 -8h-107q-11 0 -18.5 8t-7.5 20z" />
<glyph unicode="$" horiz-adv-x="1294" d="M135 260q21 24 51 4q42 -39 107 -74q12 -6 16 -19.5t-2 -25.5q-10 -20 -31 -20q-9 0 -18 6q-83 52 -115 80q-25 19 -8 49zM168 993q-2 14 5.5 26t21.5 15q13 4 25.5 -3.5t15.5 -20.5q11 -50 59 -101q11 -8 11.5 -21t-9.5 -24q-10 -10 -27 -10q-11 0 -22 8q-60 60 -80 131 zM176 1147q29 76 84 125q8 10 23 10t24 -10q20 -26 0 -49q-46 -43 -65 -99q-6 -22 -31 -22q-10 0 -12 2q-13 3 -20.5 16t-2.5 27zM354 829q7 11 19.5 16.5t25.5 -1.5q111 -40 123 -43q14 -5 21.5 -17t3.5 -24q-6 -25 -33 -25h-8q-66 16 -133 47q-29 13 -19 47zM362 1311 q-5 11 0 24t17 19q86 34 139 43q13 4 25.5 -5t15.5 -24q1 -13 -7 -23.5t-20 -13.5q-62 -11 -122 -37q-8 -4 -15 -4q-21 0 -33 21zM365 115q6 13 19.5 19t27.5 3q47 -22 125 -39q13 -1 20.5 -13t5.5 -26q-3 -11 -13 -18.5t-20 -7.5h-6q-69 14 -139 39q-12 5 -18 17.5t-2 25.5 zM592 -12q0 14 10 25.5t25 11.5q14 0 23 -11.5t9 -25.5v-135q0 -13 -9 -23t-23 -10q-15 0 -25 10t-10 23v135zM592 123v139q0 14 10 23.5t25 9.5t23.5 -9.5t8.5 -23.5v-139q0 -14 -8.5 -23.5t-23.5 -9.5t-25 9.5t-10 23.5zM592 397v135q0 14 10 23.5t25 9.5t23.5 -9.5 t8.5 -23.5v-135q0 -14 -8.5 -23t-23.5 -9t-25 9t-10 23zM592 668v137q0 15 10 24t25 9q32 0 32 -33v-37q52 -9 129 -29q13 -3 19.5 -16.5t3.5 -28.5q-6 -22 -33 -22h-8q-18 6 -111 26v-30q0 -14 -9 -24.5t-23 -10.5q-15 0 -25 10.5t-10 24.5zM592 942v135q0 13 10 23t25 10 q14 0 23 -10t9 -23v-135q0 -16 -8.5 -26.5t-23.5 -10.5t-25 11t-10 26zM592 1210v138q0 14 10 24t25 10q3 11 13 18.5t22 6.5q57 -2 141 -27q31 -20 20 -45q-6 -22 -30 -22q-7 0 -13 2q-71 19 -121 24v-129q0 -13 -9 -22.5t-23 -9.5q-15 0 -25 10t-10 22zM592 1483v137 q0 14 10 24.5t25 10.5q14 0 23 -10.5t9 -24.5v-137q0 -14 -8.5 -23.5t-23.5 -9.5t-25 9.5t-10 23.5zM631 55q0 14 9 25t22 12q68 3 129 21q28 6 40 -25q3 -13 -4 -25.5t-18 -15.5q-72 -19 -143 -22h-2q-12 0 -22 8.5t-11 21.5zM873.5 646.5q-4.5 13.5 3.5 25.5q4 12 18 16.5 t27 -0.5q69 -34 118 -80q9 -9 10 -23.5t-8 -25.5q-8 -10 -24 -10q-15 0 -23 8q-44 41 -104 70q-13 6 -17.5 19.5zM885 1283.5q-4 13.5 2 25.5q6 11 19.5 15t25.5 -3q54 -28 119 -74q10 -6 13 -20.5t-3 -24.5q-13 -16 -31 -16q-7 0 -16 6q-19 14 -58 37.5t-55 34.5 q-12 6 -16 19.5zM891 141q4 14 16 21q68 42 97 76q9 12 22.5 13t24.5 -9q10 -9 10.5 -23t-8.5 -24q-49 -60 -113 -95q-12 -4 -16 -4q-18 0 -31 19q-6 12 -2 26zM1059 344q6 21 6 55q0 33 -6 60q-12 31 24 45q11 3 23.5 -4t15.5 -19q13 -44 13 -82q0 -41 -11 -73 q-7 -25 -30 -25q-7 0 -9 2q-15 3 -23 15t-3 26z" />
<glyph unicode="&#x26;" horiz-adv-x="1425" d="M100 459q0 37 2 55q3 12 11.5 19t17.5 4q11 -1 18 -9t7 -18q-4 -16 -4 -51q0 -31 4 -49q2 -9 -5.5 -17.5t-19.5 -11.5h-2q-20 0 -27 25q-2 18 -2 53zM129 299q-5 9 0.5 19.5t15.5 13.5q9 4 19.5 -1t13.5 -14q10 -34 45 -86q11 -22 -6 -36q-10 -5 -16 -5q-10 0 -21 11 q-37 58 -51 98zM129 621q14 44 49 98q6 8 17.5 11t19.5 -3q20 -17 8 -37q-35 -56 -45 -88q-6 -14 -26 -14h-7q-10 3 -15.5 13.5t-0.5 19.5zM217 1104q0 12 2 20q0 9 9 17.5t18 7.5q11 0 18.5 -8.5t7.5 -18.5q-4 -8 -4 -18q0 -4 11 -78q4 -9 -1 -18.5t-16 -12.5h-6 q-21 0 -27 19q-12 58 -12 90zM242.5 784.5q0.5 11.5 9.5 18.5q35 31 74 53q-23 20 -47 55q-7 10 -4.5 20t10.5 17q9 6 20 4t17 -10q32 -45 67 -68q7 -4 8.5 -15.5t-4.5 -18.5q-5 -11 -18 -11q-4 -8 -10 -8q-12 -7 -80 -57q-3 -8 -17 -8q-13 0 -20 10q-6 7 -5.5 18.5z M243.5 137q-0.5 12 8.5 19q4 8 16 8t19 -8q43 -35 82 -56q18 -11 10 -34q-11 -15 -25 -15q-8 0 -12 4q-57 33 -88 64q-10 6 -10.5 18zM244.5 1213.5q-4.5 10.5 1.5 19.5q18 53 59 94q19 19 37 2q17 -17 2 -35q-31 -34 -51 -82q-8 -14 -25 -14q-6 0 -10 2q-9 3 -13.5 13.5z M383 1360q-13 22 10 37q61 28 107 35q12 1 20 -5.5t8 -15.5q7 -26 -20 -33q-46 -3 -88 -28h-2q-4 -2 -10 -2q-13 0 -25 12zM426 47q3 10 12.5 16t20.5 3q54 -15 96 -15q10 0 18.5 -7t8.5 -17q-8 -27 -27 -27h-2q-52 0 -111 16q-9 2 -14 11.5t-2 19.5zM510 379q0 29 4 45 q3 23 31 20q9 0 15.5 -9.5t4.5 -18.5q-2 -12 -2 -37q0 -31 2 -41l2 -12q4 -10 -0.5 -20t-13.5 -15h-8q-23 0 -27 18l-1 4q-1 4 -2 10t-2 14t-2 19.5t-1 22.5zM558 511q0 11 7 19q33 41 94 64q9 5 19.5 1t13.5 -13q5 -9 1 -19.5t-13 -13.5q-47 -20 -76 -53q-8 -11 -20 -11 q-10 0 -19 9q-7 6 -7 17zM584 1407q1 12 9 17.5t19 2.5q41 -4 107 -38q7 -3 10 -14.5t-2 -18.5q-8 -13 -22 -13q-10 0 -13 3q-52 25 -90 32q-22 6 -18 29zM631 31q-3 12 3 20t17 10q50 13 90 35q24 7 37 -12q10 -24 -12 -35q-54 -26 -104 -37q0 -2 -7 -2q-16 0 -24 21z M741 594q-2 11 5.5 19.5t19.5 9.5q41 8 102 8h4q10 0 17.5 -8t7.5 -19q0 -10 -8 -17t-17 -7h-4q-52 0 -96 -9h-4q-9 0 -17.5 7t-9.5 16zM766 1286q-18 18 2 35q7 6 18.5 5.5t18.5 -7.5q38 -48 57 -98q3 -9 -2 -18.5t-14 -12.5q-2 -2 -10 -2q-17 0 -25 14q-10 32 -45 84z M819 113q-15 22 6 34q6 7 21.5 22.5t26 27.5t18.5 24q4 7 16 8.5t19 -4.5q10 -4 12 -15t-6 -20q-24 -35 -74 -81q-10 -5 -18 -5q-12 0 -21 9zM829 1104v8q0 10 7.5 17.5t19.5 7.5q10 0 18.5 -7.5t8.5 -17.5v-8q0 -12 -7.5 -19.5t-19.5 -7.5q-10 0 -18.5 8t-8.5 19zM936 307 q16 34 27 92q2 11 11 17.5t19 3.5q11 -2 17.5 -10.5t3.5 -18.5q-5 -47 -29 -106q-6 -15 -22 -15q-9 0 -11 2q-9 5 -14 15t-2 20zM946 592q-3 9 2.5 19.5t14.5 15.5h4q2 2 6 2q50 3 80 30q25 14 37 -4q15 -19 -3 -37q-41 -33 -83 -38q3 -11 14 -78q2 -11 -5.5 -19.5 t-19.5 -9.5h-2q-18 0 -26 23q-3 45 -19 96zM1087 813q-4 11 2 20t17 11q10 2 20 -3.5t11 -15.5q8 -33 8 -69v-31q-3 -20 -27 -20h-4q-11 0 -17 8t-5 20v23q0 7 -5 57z" />
<glyph unicode="'" d="M139 1382q0 22 16 38t38 16q15 0 28.5 -11t18.5 -26q0 -4 2 -4v-21q0 -92 -78 -112h-6q-5 0 -9 4t-4 8q-5 10 11 18q36 8 47 41h-10q-22 0 -38 14.5t-16 34.5z" />
<glyph unicode="(" horiz-adv-x="880" d="M145 575v39q0 55 2 82q0 12 9.5 20.5t21.5 8.5q12 -2 20.5 -10.5t8.5 -20.5q-2 -27 -2 -80v-36q0 -12 -8.5 -21.5t-20.5 -9.5t-21.5 8t-9.5 20zM152 455q-1 12 6.5 21t19.5 11q12 0 22 -8t11 -20q3 -60 12 -115q1 -12 -6.5 -21.5t-19.5 -11.5q0 -2 -4 -2q-10 0 -18.5 8 t-10.5 19q-9 59 -12 119zM156 815q7 76 14 121q3 12 13 19t22 6q12 -3 19 -13t5 -22q-11 -71 -16 -115q0 -12 -9 -19.5t-20 -7.5h-2q-12 0 -20 10t-6 21zM186 217q-3 11 4 21.5t19 13.5q11 3 21.5 -4t13.5 -19q17 -66 32 -110q4 -10 -0.5 -21t-15.5 -16q-4 -2 -10 -2 q-22 0 -29 18q-19 50 -35 119zM197 1055q13 43 41 114q4 12 15.5 17t22.5 0q12 -4 17 -16t0 -23q-20 -47 -39 -109q-2 -9 -10.5 -15.5t-18.5 -6.5q-1 0 -3.5 1t-4.5 1q-11 3 -17 14t-3 23zM274 -12q-13 24 11 41q23 13 41 -13q26 -48 67 -86q8 -8 8.5 -20.5t-8.5 -20.5 q-10 -10 -20 -10q-16 0 -21 8q-41 38 -78 101zM294 1257q-2 12 5 21q42 58 90 92q9 7 21 5t20 -11q6 -10 4.5 -23t-10.5 -20q-36 -23 -76 -76q-9 -12 -24 -12q-13 0 -19 4q-9 8 -11 20zM442 -143q5 11 17 15.5t22 0.5q49 -18 105 -18q12 0 21 -9.5t9 -21.5t-9 -20.5 t-21 -8.5q-72 0 -125 23q-12 5 -17.5 16t-1.5 23zM483 1389q-3 12 4 21.5t19 12.5q46 11 80 11q12 0 21 -9.5t9 -21.5t-9 -20.5t-21 -8.5q-26 0 -66 -8h-8q-22 0 -29 23z" />
<glyph unicode=")" horiz-adv-x="880" d="M123 -176q0 12 9.5 21.5t21.5 9.5q55 0 104 18q10 4 22 -0.5t17 -15.5q4 -12 -1 -23t-17 -16q-53 -23 -125 -23q-12 0 -21.5 8.5t-9.5 20.5zM123 1403q0 12 9.5 21.5t21.5 9.5q33 0 79 -11q12 -3 19 -12.5t4 -21.5q-7 -23 -29 -23h-8q-40 8 -65 8q-12 0 -21.5 8.5 t-9.5 20.5zM304.5 1341q-1.5 13 4.5 23q8 9 20 11t21 -5q48 -34 90 -92q7 -9 5 -21t-11 -20q-6 -4 -18 -4q-16 0 -25 12q-40 53 -76 76q-9 7 -10.5 20zM337.5 -90.5q0.5 12.5 8.5 20.5q43 39 68 86q18 26 41 13q24 -17 10 -41q-37 -63 -78 -101q-5 -8 -20 -8q-11 0 -21 10 q-9 8 -8.5 20.5zM446 1147q-5 11 0 23t17 16q11 5 23 0t16 -17q28 -71 41 -114q3 -12 -3.5 -23t-17.5 -14q-2 0 -4.5 -1t-3.5 -1q-10 0 -18.5 6.5t-10.5 15.5q-19 62 -39 109zM463 119q19 55 33 110q3 12 13.5 19t20.5 4q12 -3 19 -13.5t4 -21.5q-16 -69 -35 -119 q-7 -18 -29 -18q-6 0 -10 2q-11 5 -15.5 16t-0.5 21zM510 926q-1 12 6 22t19 13q27 3 34 -25q9 -62 15 -121q2 -11 -6.5 -21t-20.5 -10h-2q-11 0 -20 7.5t-9 19.5q-5 44 -16 115zM516 344q9 55 12 115q1 12 11 20t22 8q12 -2 20 -11t7 -21q-2 -51 -13 -119q-2 -11 -10 -19 t-18 -8q-4 0 -4 2q-12 2 -20 11.5t-7 21.5zM532 694q0 12 8.5 20.5t20.5 10.5q12 0 21.5 -8.5t9.5 -20.5q2 -27 2 -82v-39q0 -12 -9.5 -20t-21.5 -8t-20 9.5t-8 21.5v36q0 40 -3 80z" />
<glyph unicode="*" horiz-adv-x="880" d="M156 387q0 31 32 31h119q27 0 27 -31q0 -7 -8 -16t-19 -9h-119q-15 0 -23.5 8.5t-8.5 16.5zM242 182.5q0 12.5 8 18.5l84 84q17 17 43 0q7 -11 7 -23t-7 -20l-84 -84q-8 -6 -25 -6q-8 0 -18 6q-8 12 -8 24.5zM250 580q-14 22 0 38q26 26 43 0l84 -77q7 -9 7 -22t-7 -21 q-15 -13 -23 -13q-16 0 -20 13zM389 387q0 25 21 29q-12 21 8 41q8 7 19.5 7t17.5 -7q1 11 8 17.5t16 6.5q20 0 27 -20q19 10 43 -4q10 -18 4 -41q20 -4 20 -29q0 -6 -7 -14t-17 -11q7 -6 7 -16.5t-7 -19.5q-12 -7 -23 -7q-9 0 -18 3q-3 -10 -11.5 -17.5t-17.5 -7.5 t-15.5 7.5t-8.5 17.5q-6 -3 -17 -3q-15 0 -20 7q-12 9 -12.5 19.5t8.5 16.5q-11 3 -18 10.5t-7 14.5zM455 96v119q0 12 6.5 19.5t17.5 7.5q12 0 21.5 -7.5t9.5 -19.5v-119q0 -12 -9.5 -22.5t-21.5 -10.5q-10 0 -17 10t-7 23zM455 569v117q0 11 7 21t17 10q12 0 21.5 -10 t9.5 -21v-117q0 -12 -9.5 -20t-21.5 -8q-10 0 -17 8t-7 20zM578 262q0 12 12 23q17 17 43 0l78 -84q7 -6 7 -18.5t-7 -24.5q-3 -3 -7 -4.5t-7 -1.5h-3q-16 0 -22 6l-82 84q-12 8 -12 20zM578 519q0 13 12 22l82 77q17 22 39 0q14 -16 0 -38l-78 -82q-13 -13 -23 -13 q-11 0 -20 13q-12 8 -12 21zM633 387q0 15 8.5 23t20.5 8h116q12 0 21.5 -8.5t9.5 -22.5q0 -7 -10.5 -16t-20.5 -9h-116q-11 0 -20 9t-9 16z" />
<glyph unicode="+" horiz-adv-x="1269" d="M131 719q0 10 8 17t19 7h55q11 0 18 -7t7 -17q0 -12 -7.5 -20.5t-17.5 -8.5h-55q-11 0 -19 8.5t-8 20.5zM293 719q0 10 7.5 17t18.5 7h111q11 0 19 -7t8 -17q0 -12 -8 -20.5t-19 -8.5h-111q-11 0 -18.5 8.5t-7.5 20.5zM483 365v55q0 10 8 18t17 8q12 0 20.5 -7.5 t8.5 -18.5v-55q0 -9 -8.5 -18t-20.5 -9q-9 0 -17 9t-8 18zM483 528v109q0 10 8 18.5t17 8.5q12 0 20.5 -8t8.5 -19v-109q0 -11 -8.5 -18.5t-20.5 -7.5q-9 0 -17 8t-8 18zM483 743v109q0 10 8 18.5t17 8.5q12 0 20.5 -8t8.5 -19v-109q0 -9 -8.5 -16.5t-20.5 -7.5 q-9 0 -17 7.5t-8 16.5zM483 958v111q0 10 8 18.5t17 8.5q12 0 20.5 -8t8.5 -19v-111q0 -9 -8.5 -16.5t-20.5 -7.5q-9 0 -17 7.5t-8 16.5zM508 719q0 10 9 17t20 7h108q11 0 19 -7t8 -17q0 -12 -8 -20.5t-19 -8.5h-108q-11 0 -20 8.5t-9 20.5zM725 719q0 10 8 17t19 7h110 q11 0 19 -7t8 -17q0 -12 -8 -20.5t-19 -8.5h-110q-11 0 -19 8.5t-8 20.5z" />
<glyph unicode="," d="M111 57q0 22 15.5 38t37.5 16q15 0 28.5 -11t18.5 -26q0 -4 2 -4v-21q0 -92 -78 -112h-6q-5 0 -8.5 3.5t-3.5 8.5q-5 10 10 18q36 11 47 41h-10q-22 0 -37.5 14.5t-15.5 34.5z" />
<glyph unicode="-" horiz-adv-x="835" d="M135 717q0 9 5 15.5t10 6.5h59q16 0 16 -22q0 -21 -16 -21h-59q-5 0 -10 6.5t-5 14.5zM254 717q0 9 4.5 15.5t9.5 6.5h60q16 0 16 -22q0 -21 -16 -21h-60q-5 0 -9.5 6t-4.5 15zM373 717q0 9 4.5 15.5t9.5 6.5h59q17 0 17 -22q0 -21 -17 -21h-59q-5 0 -9.5 6t-4.5 15z" />
<glyph unicode="." d="M168 57q0 22 15.5 37t37.5 15q20 0 34.5 -15t14.5 -37q0 -20 -14.5 -35.5t-34.5 -15.5q-22 0 -37.5 15.5t-15.5 35.5z" />
<glyph unicode="/" horiz-adv-x="864" d="M156 37l16 41q4 10 14 14t21 0q9 -3 13.5 -13.5t0.5 -19.5l-16 -43q-10 -16 -27 -16q-6 0 -8 2q-9 5 -13.5 15t-0.5 20zM215 174l39 94q3 11 13.5 16t19.5 1q22 -14 16 -37l-43 -92q-4 -19 -22 -19q-1 0 -5.5 1t-5.5 1q-22 11 -12 35zM294 345.5q-4 10.5 1 19.5l39 96 q3 9 13.5 13t19.5 -1q9 -3 14 -13.5t2 -19.5l-41 -96q-6 -16 -25 -16q-8 0 -10 4q-9 3 -13 13.5zM375 557l39 94q12 22 32 15q24 -9 17 -35l-41 -94q-6 -17 -25 -17q-6 0 -10 2q-22 11 -12 35zM455 748l39 94q15 22 36 14q9 -3 13 -13.5t0 -19.5l-41 -96q-3 -16 -25 -16h-10 q-19 13 -12 37zM535 936l38 96q15 23 37 12q9 -3 13 -13t0 -19l-41 -97q-5 -14 -23 -14q-2 0 -5 1t-5 1q-22 9 -14 33zM614 1128l43 97q3 9 13 12t20 0q9 -5 12.5 -14.5t-0.5 -18.5l-40 -96q-3 -16 -23 -16q-6 0 -10 2q-10 4 -14 14.5t-1 19.5zM696 1300.5q-4 9.5 0 18.5 l41 96q3 9 13.5 13t19.5 -1q10 -3 13.5 -12.5t0.5 -19.5l-43 -97q-3 -14 -22 -14q-6 0 -10 2q-9 5 -13 14.5z" />
<glyph unicode="0" horiz-adv-x="1454" d="M133 647q0 12 7.5 20.5t19.5 8.5q9 0 16.5 -7t7.5 -16q5 -43 15 -100q1 -10 -5.5 -20t-15.5 -13h-6q-20 0 -27 25q-12 96 -12 102zM133 754q0 22 3.5 59.5t4.5 46.5q4 28 31 25q24 -8 21 -33q-9 -70 -9 -98q0 -10 -7.5 -17.5t-16.5 -7.5h-4q-9 0 -16 8t-7 17zM162 967 q10 35 33 102q11 23 34 14q9 -3 13 -13t0 -19q-27 -90 -29 -97q-6 -20 -25 -20h-6q-24 6 -20 33zM170 440q-3 10 2 19t16 12q9 3 19.5 -2t11.5 -14q13 -45 33 -97q9 -20 -12 -34h-11q-18 0 -24 16q-26 68 -35 100zM237.5 1144q-3.5 11 2.5 19q30 57 59 92q13 19 37 5 q8 -6 8.5 -17t-6.5 -20q-30 -41 -55 -82q-3 -13 -21 -13q-10 0 -12 2q-9 3 -12.5 14zM252 244q-8 25 10 37q25 7 37 -11q19 -35 57 -82q6 -7 5.5 -18.5t-7.5 -15.5q-9 -9 -18 -9q-12 0 -19 11q-27 29 -65 88zM363.5 1316.5q0.5 11.5 7.5 18.5q47 37 94 60q8 6 18 2t15 -13 q10 -20 -13 -36q-22 -10 -79 -52q-8 -8 -17 -8q-13 0 -20 10q-6 7 -5.5 18.5zM386 98q-2 12 3 19q8 8 18.5 9t18.5 -5q41 -28 84 -49q24 -7 14 -33q-4 -16 -22 -16q-8 0 -10 4q-48 16 -97 53q-7 6 -9 18zM549 1401q-3 9 3 16.5t17 9.5q31 7 52 7q27 0 59 -7q24 -3 20 -30 q0 -9 -7 -15t-15 -6h-6q-3 0 -21.5 3t-29.5 3q-9 0 -26.5 -3t-19.5 -3q-9 0 -17 6.5t-9 18.5zM575 29q0 12 9 18.5t18 3.5h19q9 0 77 10q9 4 18.5 -0.5t12.5 -15.5q4 -27 -18 -33q-62 -12 -90 -12h-21q-12 1 -19.5 10.5t-5.5 18.5zM750 1378q6 11 16.5 14t19.5 -3 q47 -21 88 -62q9 -7 10 -18.5t-7 -18.5q-6 -6 -19 -6q-12 0 -16 4q-28 26 -78 58q-10 3 -13.5 12.5t-0.5 19.5zM773 85q3 10 11 15q37 23 78 64q4 8 16 8t19 -8t7 -19t-7 -18q-37 -42 -84 -70q-6 -2 -14 -2q-17 0 -23 11q-6 9 -3 19zM902 1235.5q2 10.5 11 15.5q8 6 18.5 5 t18.5 -9q43 -62 58 -90q7 -23 -11 -37q-3 0 -7 -1t-7 -1q-16 0 -22 15q-10 17 -54 84q-7 8 -5 18.5zM920 219.5q-2 10.5 4 18.5q29 43 49 88q10 23 35 12q9 -4 12 -15t0 -20q-25 -51 -55 -92q-6 -12 -21 -12q-10 0 -14 4q-8 6 -10 16.5zM1001 1040q-3 9 2 19.5t15 13.5 q9 5 19.5 -0.5t13.5 -15.5q17 -52 28 -101q4 -11 -2 -19.5t-16 -10.5q-1 0 -2 -1t-2 -1q-10 0 -17.5 6t-9.5 14q0 2 -29 96zM1010 420q20 63 26 96q2 9 11.5 15.5t19.5 5.5t16 -11t4 -20q-6 -29 -28 -105q-4 -18 -23 -18q-2 0 -4.5 2t-3.5 2q-21 5 -18 33zM1049 846 q-3 21 22 28q11 2 19.5 -5t9.5 -19q8 -44 8 -102q0 -13 -2 -17q2 -6 2 -16q0 -70 -6 -103q0 -11 -7.5 -17.5t-17.5 -6.5h-4q-9 0 -15.5 8.5t-6.5 19.5q6 31 6 99q0 4 4 16q-4 4 -4 12q0 33 -8 103z" />
<glyph unicode="1" horiz-adv-x="686" d="M70 1227q-13 22 10 37l90 53q24 14 37 -8q6 -9 2.5 -20t-12.5 -17l-91 -53q-3 -1 -6.5 -3t-5.5 -2q-18 0 -24 13zM252 1335q-13 22 10 37l84 49q11 11 21 11q11 0 18.5 -8.5t7.5 -18.5v-107q0 -26 -26 -26q-11 0 -19 7t-8 19v60l-51 -31q-8 -4 -13 -4q-15 0 -24 12z M340 27v106q0 9 8.5 18t18.5 9q11 0 18.5 -8.5t7.5 -18.5v-106q0 -27 -26 -27q-11 0 -19 7.5t-8 19.5zM340 238v106q0 10 8 18.5t19 8.5q12 0 19 -8t7 -19v-106q0 -11 -7 -18t-19 -7q-11 0 -19 7.5t-8 17.5zM340 451v106q0 9 8.5 18t18.5 9q11 0 18.5 -8.5t7.5 -18.5v-106 q0 -27 -26 -27q-11 0 -19 7.5t-8 19.5zM340 662v106q0 10 8 18.5t19 8.5q12 0 19 -8t7 -19v-106q0 -11 -7 -18t-19 -7q-11 0 -19 7.5t-8 17.5zM340 874v107q0 9 8.5 18t18.5 9q11 0 18.5 -8.5t7.5 -18.5v-107q0 -26 -26 -26q-11 0 -19 7t-8 19zM340 1085v107q0 10 8 18.5 t19 8.5q12 0 19 -8t7 -19v-107q0 -24 -26 -24q-11 0 -19 7t-8 17z" />
<glyph unicode="2" horiz-adv-x="1208" d="M92.5 31.5q0.5 12.5 7.5 19.5l78 68q8 7 19 7t18 -7q8 -7 6.5 -19t-10.5 -16l-74 -72q-9 -6 -18 -6q-15 0 -21 6q-6 7 -5.5 19.5zM124.5 1229q1.5 12 10.5 18l72 68l2 2q7 8 19 7.5t18 -9.5q8 -7 8 -18t-8 -19q-1 0 -2.5 -1t-3.5 -1l-72 -66q-12 -8 -18 -8q-7 0 -19 8 q-8 7 -6.5 19zM197 27q0 24 26 24h103q11 0 18.5 -7t7.5 -17q0 -11 -8 -19t-18 -8h-103q-12 0 -19 8t-7 19zM246 173q0 11 8 15l78 72q16 16 35 -4q9 -7 8.5 -17.5t-10.5 -17.5l-76 -71q-10 -5 -17 -5q-12 0 -18 9q-8 8 -8 19zM287.5 1365q3.5 10 13.5 13q59 32 102 39 q9 4 18.5 -0.5t12.5 -15.5t-2.5 -20.5t-15.5 -12.5q-32 -6 -92 -33q-2 -2 -11 -2q-16 0 -24 13q-5 9 -1.5 19zM403 27q0 11 7.5 17.5t19.5 6.5h102q11 0 19 -7t8 -17q0 -11 -8.5 -19t-18.5 -8h-102q-12 0 -19.5 8t-7.5 19zM406 293q-16 17 4 37l73 69q7 6 19 5.5t18 -7.5 q8 -7 8 -18t-8 -19l-78 -69q-4 -6 -18 -6q-6 0 -18 8zM487 1407q0 11 7.5 19t17.5 8h4q29 0 105 -13q11 -3 16 -12.5t2 -19.5q-1 -9 -8.5 -15t-16.5 -6h-6q-54 14 -92 14h-4q-10 0 -17.5 7t-7.5 18zM553.5 450.5q0.5 11.5 7.5 18.5l78 68q7 7 18 7t19 -7q6 -7 5.5 -19 t-7.5 -18l-78 -70q-4 -8 -16 -8q-11 0 -21 10q-6 7 -5.5 18.5zM610 27q0 11 7.5 17.5t19.5 6.5h104q9 0 17 -7t8 -17t-8 -18.5t-17 -8.5h-104q-12 0 -19.5 8t-7.5 19zM688 1372q4 9 15 12t20 -2q40 -19 90 -59q20 -17 2 -39q-5 -8 -16 -8t-19 4q-36 36 -82 55q-20 13 -10 37 zM708 589q0 11 7 17l73 66q4 4 5 4q7 8 18 8t18 -8q8 -7 7 -19.5t-11 -19.5q-2 -2 -4 -2l-69 -66q-9 -6 -19 -6q-9 0 -18 6q-7 9 -7 20zM819 27q0 10 7 17t18 7h104q10 0 18.5 -7t8.5 -17t-9 -18.5t-18 -8.5h-104q-10 0 -17.5 8t-7.5 19zM842 1228.5q1 10.5 10 18.5 q7 6 19 3.5t18 -11.5q36 -52 51 -96q5 -9 0.5 -19.5t-14.5 -13.5q-2 0 -4.5 -1t-3.5 -1q-17 0 -27 16q-7 22 -43 86q-7 8 -6 18.5zM851 732q-2 11 3 20q25 37 45 86q1 10 11.5 14.5t19.5 -0.5q24 -3 16 -31q-14 -47 -47 -98q-9 -12 -22 -12q-3 0 -15 4q-9 6 -11 17z M918 1032q-1 9 5 17.5t17 11.5q11 2 19.5 -5.5t9.5 -19.5q6 -60 6 -61q0 -8 -2 -23.5t-2 -23.5q-2 -9 -9 -16t-16 -7h-4q-11 2 -17 10.5t-5 18.5q0 6 1 20.5t1 20.5q0 17 -4 57z" />
<glyph unicode="3" horiz-adv-x="1249" d="M148 155q0 11 8 19t20 8t19 -8q35 -38 77 -61q9 -6 12 -17t-3 -20q-7 -13 -23 -13q-6 0 -14 5q-37 21 -88 69q-8 7 -8 18zM225 1405q0 11 8.5 19t18.5 8h106q10 0 18.5 -8t8.5 -19t-8.5 -19t-18.5 -8h-106q-10 0 -18.5 8t-8.5 19zM330 53q3 10 13.5 16t21.5 3 q47 -15 98 -21q10 0 17 -8t7 -20q-2 -9 -9.5 -17t-16.5 -8h-2q-67 7 -111 22q-10 3 -15.5 12.5t-2.5 20.5zM438 1405q0 11 8 19t19 8h106q11 0 19 -8t8 -19t-8 -19t-19 -8h-106q-11 0 -19 8t-8 19zM462 933q0 11 7 19l74 76q7 9 19.5 9.5t19.5 -7.5q8 -8 8 -20t-8 -19 l-39 -41q12 0 20 -2q11 -2 17.5 -10t5.5 -18t-9.5 -17.5t-17.5 -7.5h-4q-18 4 -57 4q-18 0 -25 14q-2 0 -4 2q-7 7 -7 18zM541 27q-2 11 4 19t16 9q35 6 98 29q9 5 20 0.5t15 -14.5q7 -24 -14 -35q-56 -22 -109 -31h-4q-23 0 -26 23zM610 1086q0 12 8 20l74 76q8 8 19 8 t20 -8q7 -8 7 -19t-7 -18l-76 -76q-5 -8 -18 -8q-10 0 -19 6q-8 7 -8 19zM637 905q11 25 35 15q53 -21 100 -54q8 -6 10 -17t-4 -20q-9 -12 -22 -12q-8 0 -17 6q-46 31 -88 47q-21 10 -14 35zM651 1405q0 11 8.5 19t18.5 8h106q12 0 19.5 -8t7.5 -19t-7.5 -19t-19.5 -8h-106 q-10 0 -18.5 8t-8.5 19zM734.5 116q1.5 11 10.5 17q28 21 50 43q12 12 24 27q6 8 17.5 8.5t19.5 -6.5q9 -6 9.5 -18t-5.5 -19q-5 -5 -14.5 -15.5t-14.5 -15.5q-26 -26 -53 -47q-6 -4 -16 -4q-16 0 -23 10q-6 9 -4.5 20zM760 1239q0 11 8 18l74 78q8 7 19 7t18 -7 q19 -19 2 -37l-76 -77q-9 -9 -19 -9q-9 0 -18 9q-8 7 -8 18zM815 756q-17 18 2 37q8 7 19.5 6.5t17.5 -8.5q38 -41 66 -95q4 -9 0 -19t-13 -15q-10 -5 -12 -5q-14 0 -25 15q-19 41 -55 84zM864 1405q0 11 8 19t19 8h55q10 0 18.5 -8t8.5 -19q0 -4 -4 -12q0 -6 -6 -9l-9 -10 q-8 -8 -18 -8q-13 0 -21 8q0 1 -1 2t-1 2h-22q-11 0 -19 8t-8 19zM873 265q-4 11 1 20q26 57 33 94q3 11 13 17t20 3q10 -1 16.5 -10t4.5 -20q-10 -48 -39 -107q-6 -14 -25 -14q-8 0 -10 2q-10 4 -14 15zM907 580q-3 10 2.5 19t16.5 11q10 3 19.5 -2t12.5 -16 q15 -69 15 -113q0 -10 -8 -18t-19 -8q-10 0 -18 7.5t-8 18.5q0 47 -13 101z" />
<glyph unicode="4" horiz-adv-x="1359" d="M104 322l70 81q4 10 15.5 11.5t21.5 -4.5q17 -21 2 -39l-66 -82q-7 -10 -22 -10q-7 0 -16 6q-19 19 -5 37zM186 305q0 10 9 18.5t18 8.5h106q12 0 19.5 -8t7.5 -19q0 -26 -27 -26h-106q-10 0 -18.5 7.5t-8.5 18.5zM240 485l65 86q6 8 17 8.5t22 -6.5q8 -6 8.5 -17 t-6.5 -19l-67 -82q-9 -13 -21 -13q-3 0 -8.5 3t-7.5 4q-19 19 -2 36zM366.5 633.5q-0.5 11.5 6.5 19.5l65 82q6 8 17.5 9t19.5 -7q21 -14 4 -37l-67 -82q-5 -8 -19 -8q-12 0 -18 6q-8 6 -8.5 17.5zM399 305q0 11 8.5 19t18.5 8h106q10 0 18.5 -8t8.5 -19q0 -12 -8 -19 t-19 -7h-106q-11 0 -19 7t-8 19zM499 798.5q-1 10.5 7 18.5l65 82q6 10 18 11.5t19 -5.5q8 -8 10 -18.5t-4 -18.5l-67 -82q-5 -10 -21 -10q-6 0 -18 4q-8 8 -9 18.5zM610 305q0 10 9 18.5t18 8.5h106q12 0 19.5 -8t7.5 -19q0 -26 -27 -26h-106q-10 0 -18.5 7.5t-8.5 18.5z M637 983l68 84q8 8 18 9t18 -7q8 -4 10 -17t-3 -20l-68 -82q-5 -10 -21 -10q-12 0 -16 4q-17 17 -6 39zM770 1149l68 82q8 9 18 10t18 -6q9 -6 10 -17t-5 -20l-66 -84q-15 -10 -20 -10q-9 0 -17 8q-22 13 -6 37zM823 305q0 10 9 18.5t18 8.5h106q12 0 19.5 -8t7.5 -19 q0 -26 -27 -26h-106q-10 0 -18.5 7.5t-8.5 18.5zM898.5 1294q-1.5 12 4.5 21l70 82q4 8 12 8v2q0 10 9 18.5t18 8.5q12 0 19 -8t7 -19v-107q0 -26 -26 -26q-10 0 -18.5 7.5t-8.5 18.5v29l-39 -47q-8 -10 -22 -10q-9 0 -15 6q-9 4 -10.5 16zM985 27v106q0 9 9 18t18 9 q11 0 18.5 -8.5t7.5 -18.5v-106q0 -27 -26 -27q-10 0 -18.5 8t-8.5 19zM985 240v106q0 9 9 17t18 8q11 0 18.5 -7.5t7.5 -17.5v-31q8 17 25 17h106q11 0 19 -8t8 -19q0 -12 -8 -19t-19 -7h-106q-19 0 -25 14v-53q0 -27 -26 -27q-10 0 -18.5 8t-8.5 19zM985 451v106 q0 10 9 18.5t18 8.5q12 0 19 -8t7 -19v-106q0 -11 -7 -19t-19 -8q-9 0 -18 8.5t-9 18.5zM985 664v106q0 9 9 18t18 9q11 0 18.5 -8.5t7.5 -18.5v-106q0 -27 -26 -27q-10 0 -18.5 8t-8.5 19zM985 877v106q0 9 9 18t18 9q11 0 18.5 -8.5t7.5 -18.5v-106q0 -27 -26 -27 q-10 0 -18.5 8t-8.5 19zM985 1087v107q0 10 9 18.5t18 8.5q12 0 19 -8t7 -19v-107q0 -24 -26 -24q-10 0 -18.5 7t-8.5 17z" />
<glyph unicode="5" horiz-adv-x="1239" d="M125 801l14 104q1 12 10.5 19.5t18.5 5.5q12 0 19.5 -9.5t5.5 -21.5l-15 -106q0 -9 -7.5 -15t-18.5 -6h-2q-9 0 -17 8.5t-8 20.5zM126 156.5q0 11.5 7 19.5t20 8t17 -8q45 -41 82 -63q9 -4 10.5 -16t-4.5 -19q-8 -15 -20 -15q-10 0 -17 5q-55 38 -88 71q-7 6 -7 17.5z M152 1012l14 106q0 10 8.5 17.5t20.5 7.5q10 -1 17 -11t7 -22l-14 -104q-2 -9 -9.5 -16t-17.5 -7h-2q-12 1 -19 10.5t-5 18.5zM176 1225l14 104q1 12 9.5 19.5t19.5 5.5q12 -1 19.5 -10.5t5.5 -18.5l-15 -108q0 -9 -8 -16t-18 -7h-2q-10 1 -17.5 10.5t-7.5 20.5zM203 1407 q0 10 7.5 18.5t18.5 8.5h107q10 0 18 -9t8 -18q0 -12 -7.5 -19.5t-18.5 -7.5h-107q-26 0 -26 27zM205 862q2 11 12 17q45 29 100 51q25 4 35 -19q4 -10 -0.5 -19.5t-15.5 -12.5q-36 -12 -90 -45q-8 -5 -17 -5q-11 0 -20 13q-6 9 -4 20zM307 53q9 23 35 19q54 -17 98 -19 q11 -2 18.5 -10.5t6.5 -17.5q0 -10 -8.5 -17.5t-18.5 -7.5h-2q-61 3 -110 20q-9 3 -15 13.5t-4 19.5zM403 924q0 10 7 18t18 10h45q45 0 70 -2q9 -2 15 -11t5 -21q-3 -21 -26 -21h-2q-23 2 -62 2h-41q-9 -2 -18.5 5.5t-10.5 19.5zM416 1407q0 9 8 18t18 9h109q9 0 18 -9 t9 -18q0 -11 -8.5 -19t-18.5 -8h-109q-11 0 -18.5 7.5t-7.5 19.5zM518 27q-1 10 5.5 18t15.5 10q45 8 100 31q20 7 35 -16q3 -10 -2.5 -20t-14.5 -15q-59 -24 -106 -29q-4 -4 -6 -4q-10 0 -17.5 7.5t-9.5 17.5zM616 905q11 23 35 17q45 -19 99 -54q19 -19 6 -39 q-8 -10 -21 -10q-12 0 -16 2q-39 33 -88 49q-22 10 -15 35zM631 1407q0 10 7.5 18.5t18.5 8.5h107q9 0 18 -9t9 -18q0 -11 -8.5 -19t-18.5 -8h-107q-26 0 -26 27zM714 116q1 11 9 17q36 28 49 43q15 12 27 27q6 8 17 9t20 -7q7 -6 7.5 -18t-5.5 -19q-8 -10 -27 -29 q-28 -28 -55 -49q-12 -4 -17 -4q-13 0 -20 10q-6 9 -5 20zM786.5 775.5q0.5 11.5 8.5 17.5q22 18 39 -2q38 -41 63 -95q6 -8 2.5 -18t-12.5 -16q-9 -3 -15 -3q-13 0 -22 13q-20 43 -57 84q-7 8 -6.5 19.5zM844 1407q0 10 7.5 18.5t18.5 8.5h54q11 0 18.5 -8.5t7.5 -18.5 q0 -27 -26 -27h-54q-26 0 -26 27zM851 265.5q-4 10.5 1 19.5q25 51 35 96q1 10 11 16t20 4q10 -3 17 -13t5 -19q-16 -57 -41 -107q-7 -14 -22 -14q-9 0 -13 4q-9 3 -13 13.5zM887 580q-5 9 0.5 19t17.5 13q9 3 19.5 -3.5t13.5 -16.5q12 -74 12 -111q0 -26 -26 -26 q-10 0 -18.5 7.5t-8.5 18.5q0 58 -10 99z" />
<glyph unicode="6" horiz-adv-x="1314" d="M131 432q0 11 7.5 19.5t19.5 9.5q9 0 16.5 -7.5t7.5 -17.5q7 -59 19 -96q4 -10 -0.5 -19t-14.5 -12q-2 0 -4.5 -2t-3.5 -2q-22 0 -26 19q-19 70 -21 108zM133 680q8 69 14 102q2 11 10.5 17.5t20.5 3.5q9 -2 15.5 -10.5t5.5 -20.5q-10 -37 -13 -98q-1 -4 -4.5 -9t-3.5 -6 q10 6 23 3q23 -9 16 -35q-24 -53 -29 -92q-4 -25 -26 -25l-2 4q-12 2 -19 10.5t-4 18.5q9 52 31 104q1 1 3 4t3 4q-4 -4 -14 -4h-2q-12 0 -19.5 8.5t-5.5 20.5zM170 887q5 19 17 56t14 44q10 24 35 17q9 -5 13.5 -15t0.5 -20q-5 -15 -15.5 -47.5t-15.5 -47.5q-3 -22 -22 -22 q-7 0 -9 4q-9 2 -15.5 12t-2.5 19zM197 225q-12 24 10 37q9 4 20 1t15 -11q22 -40 61 -76q5 -7 5 -19.5t-5 -19.5q-12 -4 -22 -4q-11 0 -17 6q-32 32 -67 86zM219 723q-1 10 6 18q28 44 74 80q7 6 18.5 5.5t18.5 -7.5q16 -24 -6 -39q-38 -33 -64 -69q-11 -11 -20 -11 q-12 0 -17 5q-9 8 -10 18zM243 1065.5q-3 10.5 3 19.5q18 42 53 93q6 9 17 10.5t20 -4.5q22 -18 8 -35q-30 -44 -53 -88q-7 -14 -23 -14q-8 0 -12 4q-10 4 -13 14.5zM338 86.5q-2 10.5 4 19.5q4 9 15 11.5t20 -2.5q54 -30 88 -43q10 -1 14.5 -10.5t1.5 -20.5q-3 -18 -24 -18 h-6q-55 21 -103 47q-8 6 -10 16.5zM369 1223q-17 20 0 37q32 34 82 69q9 6 19 5t15 -9q6 -9 5 -20t-9 -17q-26 -16 -75 -65q-6 -6 -19 -6q-9 0 -18 6zM378 866q3 11 13 15q55 27 103 37q11 2 20 -4t10 -17q3 -10 -3 -20t-17 -11q-46 -12 -90 -30q-2 -5 -11 -5q-18 0 -22 15 q-6 9 -3 20zM531.5 1370q4.5 9 15.5 14q75 29 100 33q11 3 20.5 -2.5t10.5 -17.5q9 -19 -19 -31q-31 -4 -92 -29q-6 -2 -10 -2q-22 0 -25 15q-5 11 -0.5 20zM532 31q0 10 9 17t20 7q10 -4 35 -4q1 0 61 6q12 1 20.5 -5t10.5 -15q0 -28 -22 -31q-38 -6 -70 -6q-27 0 -39 2 q-11 0 -18.5 9.5t-6.5 19.5zM578 903q0 10 7.5 17.5t16.5 7.5q58 0 111 -15q10 -3 15 -12t1 -20q-3 -17 -24 -17h-7q-67 13 -96 13q-10 0 -17 7.5t-7 18.5zM729 1405q0 26 27 29h8q10 0 18.5 -8t8.5 -19q0 -9 -8 -17t-17 -8h-10q-9 0 -18 7t-9 16zM737 49q-3 10 1 20.5 t14 14.5q46 18 84 45q23 13 36 -4q14 -24 -6 -37q-37 -27 -94 -55h-10q-15 0 -25 16zM778 864q4 9 15 12t20 -2q59 -32 90 -63q19 -19 2 -37q-10 -10 -20 -10q-7 0 -15 8q-55 41 -79 55q-23 13 -13 37zM909 197q42 53 54 79q4 10 15.5 13.5t18.5 -0.5q9 -6 13 -17t0 -20 q-30 -52 -62 -92q-9 -6 -18 -6q-7 0 -19 4q-19 19 -2 39zM931 719q2 12 9 16q9 6 20 4.5t17 -10.5q34 -49 51 -96q4 -9 0.5 -19.5t-12.5 -15.5h-10q-22 0 -25 16q-14 37 -47 86q-5 7 -3 19zM997 369q11 43 11 96q0 39 -2 55q-3 10 3.5 18.5t18.5 10.5q9 3 18.5 -4t10.5 -19 q2 -20 2 -61q0 -67 -12 -111q-2 -8 -9 -14t-16 -6q-1 0 -3 2t-3 2q-22 3 -19 31z" />
<glyph unicode="7" horiz-adv-x="1202" d="M131 1405q0 10 8 18.5t19 8.5h102q9 0 18 -9t9 -18q0 -10 -9 -18.5t-18 -8.5h-102q-12 0 -19.5 8t-7.5 19zM276 37l19 41q3 10 13.5 14.5t19.5 -0.5q9 -3 14 -13.5t2 -19.5l-18 -43q-10 -16 -27 -16q-4 0 -8 2q-10 5 -14.5 15t-0.5 20zM336 174l39 94q3 11 13.5 16 t19.5 1q22 -13 16 -37l-41 -92q-8 -19 -25 -19q-1 0 -5 1t-5 1q-22 11 -12 35zM338 1405q0 10 8 18.5t19 8.5h102q10 0 18.5 -9t8.5 -18q0 -11 -8 -19t-19 -8h-102q-12 0 -19.5 8t-7.5 19zM415 345.5q-4 10.5 1 19.5l39 96q3 9 13 13t19 -1q10 -3 15 -13.5t2 -19.5l-41 -96 q-6 -16 -25 -16q-6 0 -10 4q-9 3 -13 13.5zM496 557l39 94q9 22 34 15q25 -11 15 -35l-41 -94q-3 -17 -23 -17q-8 0 -12 2q-19 10 -12 35zM545 1405q0 10 7.5 18.5t18.5 8.5h103q10 0 18 -9t8 -18q0 -11 -8 -19t-18 -8h-103q-12 0 -19 8t-7 19zM575 748l39 94q15 22 37 14 q9 -3 13 -13.5t0 -19.5l-41 -96q-3 -16 -23 -16h-10q-22 13 -15 37zM655 936l39 96q16 24 37 12q9 -3 13 -13t-1 -19l-41 -97q-5 -14 -22 -14q-1 0 -4.5 1t-5.5 1q-23 10 -15 33zM737 1109q-4 10 0 19l41 97q3 9 13 12t20 0q22 -9 14 -33l-43 -96q-3 -16 -22 -16q-4 0 -10 2 q-9 5 -13 15zM752 1405q0 10 7.5 18.5t18.5 8.5h103q4 0 18 -9v-2l4 -4q0 -2 2 -4q0 -1 1 -4t1 -4q0 -6 -2 -8v-2l-41 -97q-6 -14 -24 -14q-5 0 -11 2q-9 5 -12.5 14.5t0.5 18.5l25 59h-64q-12 0 -19 8t-7 19z" />
<glyph unicode="8" horiz-adv-x="1290" d="M113 455q0 66 12 106q2 9 11.5 15.5t19.5 3.5q21 -4 18 -31q-10 -39 -10 -94q0 -36 2 -54q1 -10 -5.5 -19t-17.5 -11h-2q-22 0 -26 22q-2 20 -2 62zM143 289q-10 23 13 35q24 6 32 -17q16 -36 48 -84q5 -7 2.5 -18t-9.5 -17q-12 -6 -14 -6q-13 0 -20 15q-36 49 -52 92z M161.5 644.5q-3.5 10.5 0.5 19.5q25 48 59 88q6 7 18 8t19 -4q8 -8 8.5 -18.5t-6.5 -18.5q-36 -45 -53 -78q-10 -16 -23 -16q-8 0 -10 4q-9 5 -12.5 15.5zM262 150q8 8 18.5 8.5t18.5 -6.5q65 -47 78 -54q9 -5 12.5 -15.5t-2.5 -19.5q-6 -12 -22 -12q-9 0 -11 2 q-48 26 -90 62q-16 21 -2 35zM283 1141q0 25 26 28q10 0 17.5 -7.5t7.5 -16.5q3 -48 20 -90q3 -10 0 -20t-12 -13q-4 -2 -10 -2q-17 0 -23 14q-23 47 -26 107zM295 788q-11 22 6 35q45 33 94 54q9 4 18.5 -0.5t14.5 -14.5q3 -10 0 -20t-12 -13q-50 -23 -84 -47 q-12 -4 -17 -4q-10 0 -20 10zM303 1251q19 55 59 95q8 8 18 8t17 -8q8 -6 8.5 -17.5t-6.5 -19.5q-25 -21 -51 -76q-3 -14 -22 -14h-11q-19 6 -12 32zM366 961q0 11 7 18q19 19 35 2q43 -37 75 -49q20 -8 17 -27q19 0 51 4q9 9 18 9q47 0 90 18q23 8 33 -12q7 -25 -12 -35 q-26 -13 -53 -19q-7 -14 -27 -14q-10 4 -33 4q-1 0 -61 -6h-4q-19 0 -27 23v6q-2 0 -4.5 1t-3.5 1q-50 16 -94 57q-7 8 -7 19zM436 45q2 11 11.5 16.5t19.5 1.5q43 -12 92 -12q27 0 27 -26q0 -9 -8 -17t-19 -8q-60 0 -106 14q-10 3 -15.5 12.5t-1.5 18.5zM440 1374 q-7 25 13 35q54 23 110 23q9 1 17 -6.5t8 -16.5q0 -25 -25 -29q-47 0 -90 -18q-2 -2 -10 -2q-15 0 -23 14zM637 31q-3 9 2.5 19t17.5 11q56 15 88 31q9 5 19.5 2t13.5 -12q6 -9 2.5 -20t-12.5 -17q-46 -20 -100 -35h-6q-9 0 -16.5 6t-8.5 15zM639 1399q3 9 13 13.5t20 0.5 q54 -23 92 -61q17 -17 2 -35q-8 -8 -21 -8q-11 0 -14 8q-49 39 -80 47q-22 11 -12 35zM680 872q2 9 11.5 14t19.5 1q50 -17 98 -45q20 -16 8 -37q-10 -10 -22 -10q-9 0 -15 4q-49 29 -86 41q-23 8 -14 32zM727.5 968.5q-0.5 11.5 5.5 18.5q38 38 51 76q3 9 13.5 13.5 t19.5 0.5q9 -3 13.5 -13.5t0.5 -19.5q-20 -50 -61 -94q-8 -8 -16 -8q-7 0 -19 8q-7 7 -7.5 18.5zM780 1241q-6 23 15 35q9 4 18 -0.5t14 -13.5q22 -56 25 -109q0 -10 -8 -17.5t-17 -7.5q-24 0 -28 23q0 53 -19 90zM821 109q-12 21 6 36q40 35 64 68q17 17 35 6 q9 -6 11 -17.5t-5 -19.5q-30 -41 -74 -78q-2 0 -7 -3t-9 -3q-10 0 -21 11zM854 739q-11 19 0 37q8 8 20 8t19 -8q27 -29 65 -88q5 -7 2.5 -18t-12.5 -15q-4 -4 -12 -4q-16 0 -23 13q-18 37 -59 75zM938 295q24 53 29 92q3 23 28 23q10 -1 17.5 -11.5t5.5 -19.5 q-12 -53 -31 -105q-11 -14 -24 -14q-2 0 -5 1t-4 1q-11 3 -15 13t-1 20zM954 578q-4 9 1 18t14 12q25 6 32 -16q19 -66 21 -107q0 -9 -7.5 -16.5t-17.5 -7.5q-9 0 -16.5 6.5t-7.5 15.5q-7 58 -19 95z" />
<glyph unicode="9" horiz-adv-x="1314" d="M135 969q0 36 12 110q3 9 13 14.5t20 2.5q10 -1 16.5 -10.5t4.5 -20.5q-15 -58 -15 -96l7 -56q0 -25 -25 -28h-2q-9 0 -17 6.5t-8 15.5q-6 30 -6 62zM166 801q-3 9 1.5 20t14.5 15q9 3 19.5 -2.5t13.5 -14.5q22 -48 47 -86q6 -9 4 -20t-12 -15q-3 -6 -12 -6q-13 0 -23 10 q-24 33 -53 99zM184.5 1161q-3.5 12 1.5 19q25 52 60 90q7 10 18.5 11t20.5 -7q16 -13 4 -37q-37 -37 -56 -80q-7 -14 -22 -14q-8 0 -14 2q-9 4 -12.5 16zM291 623q-16 16 0 36q6 8 17.5 9t19.5 -6q48 -41 80 -56q19 -15 10 -37q-12 -12 -23 -12q-8 0 -14 2q-48 28 -90 64z M322 1309q-13 23 8 37q54 38 96 51q9 6 19.5 1t13.5 -14q4 -9 -1 -19t-14 -15q-41 -15 -86 -45q-2 -7 -16 -7q-12 0 -20 11zM406 27q0 9 7 16.5t17 7.5h8q9 3 18 -5t9 -17q1 -11 -6.5 -19t-18.5 -10h-10q-9 0 -16 7.5t-8 19.5zM465 553q3 9 13 14t20 2q62 -12 96 -12 q9 0 18 -8.5t9 -18.5t-8.5 -17t-18.5 -7q-63 0 -109 14q-27 7 -20 33zM508 1397q-1 12 5 20t15 10q44 7 72 7q7 0 21 -1t20 -1q9 0 16 -9t7 -20q-1 -10 -9.5 -17.5t-19.5 -7.5q-12 4 -35 4q-3 0 -63 -6h-2q-20 0 -27 21zM516 37q-2 9 4.5 17.5t16.5 11.5q37 6 94 30 q9 6 19.5 1.5t13.5 -13.5q10 -23 -13 -35q-89 -31 -104 -33h-4q-24 0 -27 21zM672 537q-4 9 2.5 18.5t15.5 11.5q22 4 92 31q10 6 20.5 3t14.5 -13q3 -9 0 -20t-12 -15q-53 -25 -103 -37h-8q-18 0 -22 21zM709 109q-15 23 8 36q39 28 74 66q7 7 18 7t18 -7q17 -20 0 -37 q-48 -48 -84 -70q-2 -6 -12 -6q-17 0 -22 11zM713 1393q9 22 35 18q63 -27 98 -47q9 -6 11 -17t-3 -20q-6 -12 -20 -12q-11 0 -15 4q-54 30 -88 43q-10 1 -15 10.5t-3 20.5zM854 285q8 14 25.5 43t25.5 43q3 9 13.5 13t19.5 -1q22 -10 14 -35q-24 -45 -57 -92 q-3 -10 -21 -10q-10 0 -14 4q-20 17 -6 35zM860 614q-16 19 4 39q37 26 68 70q4 7 16 9t19 -3q8 -8 10 -18.5t-4 -18.5q-26 -40 -76 -80q-6 -6 -14 -6q-15 0 -23 8zM888 1276q0 12 7 18q7 8 18 8t19 -8q46 -49 67 -86q4 -9 2 -20t-10 -17q-6 -2 -14 -2q-13 0 -23 13 q-23 39 -59 75q-7 7 -7 19zM946 465q24 74 29 94q11 28 35 19q9 -1 14 -11.5t2 -19.5q-19 -61 -33 -101q-4 -18 -22 -18q-2 0 -5 1t-5 1q-22 10 -15 35zM981 807q14 34 29 92q0 12 8.5 18t19.5 3q10 -1 16.5 -9.5t4.5 -19.5q-10 -57 -33 -105q0 -1 -1 -3t-1 -3q9 4 16 2 q10 0 17 -8.5t6 -19.5q0 -8 -12 -103q-3 -20 -27 -20h-4q-12 1 -18 9t-3 19q1 6 6.5 43t6.5 58q0 8 6 14q-8 -4 -14 -4q-9 0 -11 2q-22 11 -12 35zM993 1092q-3 25 19 32q9 4 19 -0.5t13 -13.5q16 -60 19 -109q3 -24 -23 -28h-2q-23 0 -26 24q0 40 -19 95z" />
<glyph unicode=":" horiz-adv-x="491" d="M178 53q0 22 15.5 37.5t37.5 15.5q20 0 35 -15.5t15 -37.5q0 -20 -15 -34.5t-35 -14.5q-22 0 -37.5 14.5t-15.5 34.5zM178 803q0 22 15.5 36.5t37.5 14.5q21 0 35.5 -15t14.5 -36q0 -20 -15 -35.5t-35 -15.5q-22 0 -37.5 15.5t-15.5 35.5z" />
<glyph unicode=";" horiz-adv-x="491" d="M121 53q0 22 15.5 37.5t37.5 15.5q15 0 29 -10.5t18 -25.5q0 -4 2 -4v-7v-6v-8q0 -93 -78 -113h-6q-4 0 -8 4t-4 9q-5 10 10 18q36 11 47 41h-10q-22 0 -37.5 14.5t-15.5 34.5zM121 803q0 22 15.5 36.5t37.5 14.5q20 0 34.5 -14.5t14.5 -36.5q0 -20 -14.5 -35.5 t-34.5 -15.5q-22 0 -37.5 15.5t-15.5 35.5z" />
<glyph unicode="&#x3c;" horiz-adv-x="1269" d="M126 637.5q0 12.5 9 21.5t21.5 9t21.5 -9l86 -86q8 -9 8 -22.5t-8 -22.5q-9 -6 -22 -6q-12 0 -21 6l-86 88q-9 9 -9 21.5zM126 793.5q0 12.5 9 21.5l86 88q26 17 43 0q8 -9 8 -23t-8 -22l-86 -86q-10 -10 -22 -10q-11 0 -21 10q-9 9 -9 21.5zM305 442q-14 22 0 43 q9 9 23.5 9t23.5 -9l84 -86q9 -9 9 -21.5t-9 -21.5q-8 -8 -20 -8q-13 0 -21 8zM305 946q-14 22 0 43l90 84q6 9 19 9t22 -9q9 -6 9 -20t-9 -23l-84 -84q-10 -10 -24 -10q-13 0 -23 10zM470 290.5q0 13.5 9 20.5q9 9 21.5 9t21.5 -9l86 -86q9 -9 9 -21.5t-9 -21.5 q-8 -8 -22 -8q-13 0 -21 8l-86 86q-9 9 -9 22.5zM470 1139q0 13 9 22l86 86q9 9 21.5 9t21.5 -9t9 -21.5t-9 -21.5l-86 -84q-10 -10 -20 -10q-13 0 -23 10q-9 6 -9 19zM642 118q0 14 9 23q9 7 21.5 7t21.5 -7l88 -90q6 -9 5.5 -21.5t-9.5 -21.5q-3 -8 -20 -8q-15 0 -23 8 l-84 90q-9 6 -9 20zM642 1312.5q0 13.5 9 22.5l84 86q9 9 23 9t20 -9q9 -9 9.5 -21.5t-5.5 -21.5l-88 -88q-8 -8 -22 -8q-13 0 -21 8q-9 9 -9 22.5z" />
<glyph unicode="=" horiz-adv-x="1269" d="M162 508q0 11 8 19t18 8h54q26 0 26 -27q0 -10 -7.5 -18.5t-18.5 -8.5h-54q-9 0 -17.5 9t-8.5 18zM162 926q0 10 8.5 19t17.5 9h54q11 0 18.5 -8.5t7.5 -19.5t-7 -18t-19 -7h-54q-9 0 -17.5 7.5t-8.5 17.5zM322 508q0 11 8 19t18 8h107q26 0 26 -27q0 -10 -7.5 -18.5 t-18.5 -8.5h-107q-9 0 -17.5 9t-8.5 18zM322 926q0 10 8.5 19t17.5 9h107q11 0 18.5 -8.5t7.5 -19.5t-7 -18t-19 -7h-107q-9 0 -17.5 7.5t-8.5 17.5zM537 508q0 12 7.5 19.5t16.5 7.5h107q12 0 20 -7.5t8 -19.5q0 -10 -8.5 -18.5t-19.5 -8.5h-107q-9 0 -16.5 9t-7.5 18z M537 926q0 10 7.5 19t16.5 9h107q12 0 20 -8.5t8 -19.5t-8 -18t-20 -7h-107q-9 0 -16.5 7.5t-7.5 17.5zM750 508q0 12 7.5 19.5t18.5 7.5h107q26 0 26 -27q0 -10 -7.5 -18.5t-18.5 -8.5h-107q-10 0 -18 9t-8 18zM750 926q0 11 8 19.5t18 8.5h107q12 0 19 -8.5t7 -19.5 t-7 -18t-19 -7h-107q-11 0 -18.5 7.5t-7.5 17.5z" />
<glyph unicode="&#x3e;" horiz-adv-x="1269" d="M190 8q-14 22 0 43l91 90q6 7 20 7t23 -7q8 -9 8 -23t-8 -20l-86 -90q-8 -8 -23 -8q-17 0 -25 8zM190 1378q-14 22 0 43q9 9 24 9t24 -9l86 -88q8 -7 8 -20.5t-8 -22.5q-8 -8 -23 -8q-12 0 -20 8zM356 203.5q0 12.5 9 21.5l86 86q9 9 21.5 9t21.5 -9q9 -7 9 -20.5 t-9 -22.5l-86 -86q-8 -8 -21 -8q-14 0 -22 8q-9 9 -9 21.5zM356 1225.5q0 12.5 9 21.5t21.5 9t21.5 -9l86 -86q9 -9 9 -22t-9 -19q-10 -10 -23 -10q-10 0 -20 10l-86 84q-9 9 -9 21.5zM528 377.5q0 12.5 9 21.5l84 86q9 9 23 9t20 -9q9 -9 9.5 -21.5t-5.5 -21.5l-88 -86 q-8 -8 -23 -8q-12 0 -20 8q-9 9 -9 21.5zM528 1051.5q0 12.5 9 21.5t21.5 9t21.5 -9l88 -84q6 -9 5.5 -21.5t-9.5 -21.5q-3 -10 -21 -10q-12 0 -22 10l-84 84q-9 9 -9 21.5zM701.5 550.5q-0.5 13.5 5.5 22.5l88 86q9 9 21.5 9t21.5 -9t9 -21.5t-9 -21.5l-84 -88 q-9 -6 -23 -6t-20 6q-9 9 -9.5 22.5zM701.5 879.5q0.5 14.5 9.5 23.5q7 8 20 7.5t23 -7.5l84 -88q9 -9 9 -21.5t-9 -21.5q-10 -10 -21 -10q-12 0 -22 10l-88 86q-6 7 -5.5 21.5z" />
<glyph unicode="?" horiz-adv-x="1093" d="M80.5 1200q-2.5 10 3.5 19q19 36 63 84q6 7 16.5 7t18.5 -7t8 -17t-8 -18q-23 -23 -57 -74q-4 -12 -21 -12q-8 0 -12 2q-9 6 -11.5 16zM216 1352q2 9 9 14q46 29 97 45q10 4 19 -0.5t11 -13.5q7 -22 -14 -33q-40 -13 -84 -39q-6 -2 -12 -2q-18 0 -23 10t-3 19zM401 1407 q0 9 7 17.5t16 9.5h35q27 0 67 -4q12 -3 19 -12t4 -19q-1 -9 -8.5 -15t-16.5 -6h-4q-30 6 -61 6h-31q-11 -2 -19 5.5t-8 17.5zM434 25v47q0 10 7 17t18 7q9 0 16.5 -7t7.5 -17v-47q0 -9 -7.5 -17t-16.5 -8q-10 0 -17.5 8t-7.5 17zM434 322v65q0 9 7.5 17t17.5 8q9 0 16.5 -8 t7.5 -17v-65q0 -11 -7 -18t-17 -7q-25 0 -25 25zM434 485v101q0 9 7.5 16.5t17.5 7.5q1 0 4 -1t4 -1q7 7 18 10q55 7 93 19q9 3 18 -1t12 -13q5 -9 -0.5 -19.5t-15.5 -13.5q-49 -15 -103 -21h-2h-4v-84q0 -10 -7.5 -17t-16.5 -7q-11 0 -18 7t-7 17zM596 1386q5 9 14.5 13 t18.5 0q25 -10 90 -51q17 -17 6 -35q-7 -10 -20 -10t-15 6q-52 34 -82 45q-19 10 -12 32zM650 660.5q3 10.5 12 15.5q48 32 69 59q7 7 18 7t17 -7q16 -16 4 -35q-37 -37 -82 -65q-6 -4 -14 -4q-14 0 -21 10q-6 9 -3 19.5zM754 1243q-11 18 6 35q8 6 18.5 5t16.5 -9 q38 -55 55 -90q4 -9 0.5 -18.5t-12.5 -12.5q-4 -4 -13 -4q-12 0 -22 16q-17 38 -49 78zM787 790q-3 10 1 17q22 42 37 86q1 9 11.5 14.5t19.5 3.5q25 -11 16 -32q-13 -47 -41 -97q-9 -12 -20 -12q-8 0 -12 4q-9 6 -12 16zM834 1075q-3 28 20 31q9 2 18.5 -4.5t10.5 -16.5 q8 -54 8 -84v-18q0 -10 -8 -18.5t-17 -8.5q-26 6 -26 29v16q0 37 -6 74z" />
<glyph unicode="@" horiz-adv-x="2007" d="M109 715q0 49 8 96q3 20 28 20q10 0 16.5 -8.5t6.5 -19.5q-8 -39 -8 -88q0 -9 2 -13q0 -11 -8 -17.5t-17 -6.5q-26 0 -26 22q-2 6 -2 15zM119 592q-3 28 20 35q11 2 20.5 -4.5t10.5 -18.5q2 -12 23 -98q5 -9 0 -20t-15 -11q-2 -2 -8 -2q-8 0 -16 5t-9 11q-17 49 -26 103z M137 913q11 49 39 103q10 20 31 12q10 -4 14.5 -14t-0.5 -19q-23 -58 -33 -96q-5 -16 -26 -16h-8q-24 7 -17 30zM187.5 413q3.5 10 11.5 13q20 14 34 -10q18 -40 52 -86q6 -7 4.5 -19t-8.5 -18q-3 0 -9.5 -1t-9.5 -1q-12 0 -20 8q-39 56 -54 92q-4 12 -0.5 22zM223.5 1090.5 q-1.5 9.5 3.5 15.5q29 48 66 88q21 17 37 4q9 -9 9 -20.5t-9 -18.5q-30 -41 -60 -78q-12 -12 -22 -12q-3 0 -7 2.5t-8 3.5q-8 6 -9.5 15.5zM303 234q0 11 6 20q22 15 41 -4q24 -27 72 -62q11 -9 12 -19.5t-8 -16.5q-6 -13 -18 -13q-11 0 -15 6q-34 22 -84 72q-6 6 -6 17z M361.5 1250q0.5 11 9.5 20q57 46 88 61q26 11 35 -10q7 -8 3 -18t-14 -17q-26 -14 -75 -57q-1 0 -9 -4t-12 -4q-12 0 -20 12q-6 6 -5.5 17zM473 123q10 17 37 10q50 -32 88 -43q10 -3 14.5 -12.5t-2.5 -18.5q0 -10 -6.5 -16t-13.5 -6q-4 0 -6 3q-1 1 -2 1q-65 30 -101 45 q-22 13 -8 37zM473 715q0 39 14 90q0 13 10 19t21 3t16 -11.5t1 -18.5q-1 -10 -5 -38.5t-4 -43.5q0 -9 2 -15q0 -11 -7 -19t-17 -9q-12 0 -20.5 8.5t-8.5 17.5q-2 4 -2 17zM494 590q0 31 20 33q10 3 19.5 -2.5t9.5 -16.5q20 -56 47 -80q10 -21 -6 -41q-6 -2 -17 -2 q-14 0 -20 8q-28 44 -53 101zM528 911q39 62 70 84q9 9 20 9t17 -9q8 -7 6.5 -19t-10.5 -18q-4 -4 -19 -20.5t-24 -28t-17 -24.5q-9 -13 -22 -13h-14q-14 18 -7 39zM541.5 1363.5q3.5 9.5 13.5 14.5q68 27 104 35q10 0 19 -5.5t10 -14.5q3 -11 -2 -20t-16 -9 q-92 -32 -95 -33q-4 -2 -12 -2q-7 0 -13.5 4t-6.5 10q-5 11 -1.5 20.5zM621 446q14 21 36 7q50 -35 82 -43q10 -1 16 -13t3 -20q-6 -19 -27 -19h-8q-46 15 -96 52q-21 21 -6 36zM664 41q1 13 10 18t20 2q14 -1 48 -5.5t53 -4.5q18 -4 18 -28q0 -8 -6.5 -15.5t-15.5 -7.5 q-43 0 -105 12q-12 3 -18.5 11.5t-3.5 17.5zM678.5 1042.5q3.5 9.5 13.5 14.5q60 26 111 26q8 3 15 -4t7 -18q3 -22 -22 -29q-40 -3 -90 -22h-13q-7 0 -13.5 4t-6.5 10q-5 9 -1.5 18.5zM743 1401q-7 21 23 31q10 0 29.5 1t29.5 1q9 0 24 -1t21 -1q11 0 19 -9t4 -18 q0 -27 -23 -27q-14 2 -45 2q-10 0 -28.5 -1t-28.5 -1q-25 0 -25 23zM809 367q0 28 25 28q52 3 92 21q24 3 35 -15q7 -27 -19 -36q-52 -20 -108 -23q-11 0 -18 8t-7 17zM870 27q0 8 6.5 16t14.5 8q9 2 45 8.5t53 12.5q9 2 19.5 -4.5t13.5 -16.5q4 -10 -3 -19.5t-18 -11.5 q-37 -10 -102 -18l-6 -2q-8 0 -15.5 8.5t-7.5 18.5zM879 1057q14 27 32 18q28 -6 103 -47q21 -15 8 -33q-11 -14 -23 -14q-6 0 -12 6q-40 24 -88 37q-10 3 -16 12.5t-4 20.5zM944 1395q3 12 13.5 17.5t21.5 0.5q26 -1 104 -31q9 -2 14 -11.5t1 -18.5q-13 -17 -29 -17 q-2 2 -8 2q-50 20 -94 27q-10 1 -17.5 10.5t-5.5 20.5zM1000.5 444q0.5 10 7.5 17q39 34 61 71q6 8 18.5 11.5t18.5 -2.5q23 -13 10 -39q-28 -41 -74 -80q-9 -6 -18 -6q-16 0 -16 10q-8 8 -7.5 18zM1048 939q1 11 9 19q9 7 21 5t18 -13q33 -42 53 -94q5 -9 0.5 -19.5 t-14.5 -13.5h-11q-17 0 -20 15q-14 39 -51 82q-6 8 -5 19zM1112 621q12 43 12 94v30q0 8 7 17t18 12q9 0 18 -7.5t9 -14.5q2 -14 2 -37q0 -29 -2 -43q2 -2 2 -13v-102q0 -10 -9 -17.5t-20 -7.5t-18 7t-7 18v33q-20 10 -12 31zM1124 358v97q0 11 7.5 18.5t17.5 7.5 q11 0 20 -8t9 -18v-90q1 -10 -5.5 -18.5t-17.5 -10.5h-6q-8 0 -16 6t-9 16zM1141 1309.5q-3 10.5 4 19.5q3 10 13 12t20 -4q53 -24 88 -59q9 -6 10.5 -18t-4.5 -19q-8 -8 -21 -8q-6 0 -14 4q-31 25 -84 59q-9 3 -12 13.5zM1184 291q5 8 14.5 11t15.5 -3q12 -6 35 -6h27 q4 6 20 6q9 5 19.5 0.5t13.5 -14.5q5 -11 1 -21t-15 -14q-12 -8 -27 -8q-12 -2 -39 -2q-37 0 -57 10q-20 17 -8 41zM1303 1189q0 13 6 17q21 20 41 0q29 -33 67 -82q6 -9 4 -20t-12 -17q-4 -4 -14 -4q-9 0 -23 9q-31 50 -63 77q-6 7 -6 20zM1372 313q-20 17 0 37 q21 21 33 45l14 15q6 12 6 16q4 10 14.5 14t20.5 0q9 -3 12.5 -12t-2.5 -20q0 -3 -8 -23q-16 -35 -53 -72q-6 -6 -20 -6q-8 0 -17 6zM1422.5 1026.5q3.5 10.5 11.5 15.5q23 8 36 -12q30 -66 39 -100q3 -11 -2.5 -20.5t-15.5 -10.5h-6q-23 0 -25 16q-7 25 -35 93 q-6 8 -2.5 18.5zM1462 524q19 71 21 97q1 10 10 16t20 4q11 0 18 -9.5t3 -19.5q-3 -28 -21 -106q-8 -19 -24 -19q-6 0 -8 2q-11 3 -17 14.5t-2 20.5zM1483 817q-3 21 20 33q13 3 22 -5.5t9 -21.5q8 -33 8 -106q0 -8 -6 -15.5t-16 -7.5q-29 0 -29 23q0 56 -8 100z" />
<glyph unicode="A" horiz-adv-x="1323" d="M115 37l39 94q1 10 11 15.5t19 0.5q25 -9 17 -32l-37 -97q-4 -18 -23 -18q-8 0 -10 2q-16 9 -16 28v7zM190 227l37 99q6 23 33 16q22 -11 12 -35l-34 -98q-6 -14 -25 -14q-4 0 -10 2q-16 8 -16 20q0 4 3 10zM262 422l37 98q12 23 33 17q20 -9 16 -35l-26 -64h69 q11 0 19 -8t8 -18q0 -12 -7.5 -19.5t-19.5 -7.5h-102q-16 0 -21 8q-8 8 -8 18q0 5 2 11zM336 596q-2 5 -2 10t2 10l35 99q5 9 15 13.5t20 0.5q9 -3 13.5 -13.5t0.5 -19.5l-35 -98q-10 -16 -27 -16h-8q-10 4 -14 14zM408 809l36 100q3 9 13.5 12.5t19.5 0.5q9 -1 14.5 -11.5 t2.5 -19.5l-37 -98q-7 -17 -27 -17h-6q-10 4 -14 14q-3 6 -3 12q0 3 1 7zM469 412q0 9 9 17.5t18 8.5h104q10 0 17.5 -8.5t7.5 -17.5q0 -12 -7 -19.5t-18 -7.5h-104q-10 0 -18.5 8t-8.5 19zM479 1004l37 96q9 23 35 16q23 -11 14 -35l-37 -96q-6 -14 -24 -14h-8q-8 3 -14 13 q-4 7 -4 13q0 4 1 7zM553 1198l35 96q4 10 15 15t20 0q23 -8 14 -33l-35 -96q-11 -19 -24 -19q-2 0 -5.5 2t-5.5 2q-9 3 -13 13q-2 6 -3 11q0 5 2 9zM625 1393l8 20q1 8 9 13q6 4 14 4h3h4q14 0 25 -17l6 -20q4 -10 -0.5 -20t-13.5 -15q-2 0 -4.5 -1t-3.5 -1q-9 0 -13 2 q-2 -2 -8 -2q-1 0 -5 1t-5 1q-18 8 -18 24q0 5 2 11zM676 412q0 9 8.5 17.5t17.5 8.5h105q10 0 17 -8t7 -18q0 -12 -6.5 -19.5t-17.5 -7.5h-105q-10 0 -18 8t-8 19zM682 1276q-2 6 -2 11q0 6 2 10q4 9 16 12q4 2 9 2t9 -2q10 -4 15 -15l37 -96q3 -9 -2 -19.5t-14 -13.5 q-1 0 -4 -2t-5 -2q-16 0 -24 19zM758 1081q-3 7 -3 13q0 14 15 22q7 2 12 2q16 0 21 -16l37 -98q5 -9 0 -19.5t-17 -13.5h-6q-18 0 -24 14zM828 910q4 10 14 12q6 1 11 1q16 0 24 -14l34 -100q4 -9 0.5 -18.5t-12.5 -14.5h-10q-8 0 -15 5t-8 12l-37 98q-3 5 -3 10q0 4 2 9z M885 412q0 9 7.5 17.5t16.5 8.5h88l-22 64q-4 9 0.5 19.5t13.5 15.5q10 3 20 -2.5t15 -14.5l35 -98q4 -9 -1 -19.5t-14 -13.5h-10h-6q-4 -4 -14 -4h-105q-9 0 -16.5 7.5t-7.5 19.5zM901 696q-1 4 -1 8q0 6 2 12q4 10 16 13q4 2 9 2q5 -1 9 -3q10 -4 12 -13l39 -99 q4 -26 -16 -34h-10q-20 0 -23 16zM1047 307q-2 6 -2 11q0 16 18 24q4 1 7 1q6 -1 12 -3q10 -4 14 -14l37 -99q7 -20 -17 -30q-2 -2 -10 -2q-17 0 -23 14zM1120 115q-2 4 -2 8q0 5 2 10q4 9 15 14q4 2 9 2q5 -1 10 -3q10 -4 15 -15l35 -94q3 -7 2 -12q0 -15 -16 -23 q-4 -2 -8 -2q-16 0 -27 18z" />
<glyph unicode="B" horiz-adv-x="1216" d="M213 57v105q0 11 7.5 17.5t19.5 6.5q9 0 16.5 -7t7.5 -17v-105q0 -4 -2 -6h84q10 0 17.5 -7.5t7.5 -16.5q0 -12 -7 -19.5t-18 -7.5h-102q-10 0 -17.5 8t-7.5 19q0 6 2 10q-8 5 -8 20zM213 264v105q0 26 27 26q10 0 17 -7.5t7 -18.5v-105q0 -9 -7.5 -16.5t-16.5 -7.5 q-12 0 -19.5 7.5t-7.5 16.5zM213 473v105q0 11 7.5 17.5t19.5 6.5q9 0 16.5 -7t7.5 -17v-105q0 -10 -7.5 -18.5t-16.5 -8.5q-12 0 -19.5 8t-7.5 19zM213 680v104q0 12 7.5 19.5t19.5 7.5q9 0 16.5 -7.5t7.5 -19.5v-104q0 -9 -7.5 -17t-16.5 -8q-12 0 -19.5 7.5t-7.5 17.5z M213 889v102q0 12 7.5 19.5t19.5 7.5q9 0 16.5 -7.5t7.5 -19.5v-102q0 -10 -7.5 -18.5t-16.5 -8.5q-12 0 -19.5 8t-7.5 19zM213 1096v104q0 11 7.5 19t19.5 8q9 0 16.5 -8.5t7.5 -18.5v-104q0 -9 -7.5 -18t-16.5 -9q-11 0 -19 8.5t-8 18.5zM213 1305v102q0 12 7.5 19.5 t19.5 7.5h4h104q12 0 19.5 -7.5t7.5 -19.5q0 -9 -7.5 -17t-19.5 -8h-84v-77q0 -10 -7.5 -18.5t-16.5 -8.5q-12 0 -19.5 8t-7.5 19zM307 774q0 9 8 18t17 9h104q11 0 19 -8.5t8 -18.5q0 -26 -27 -26h-104q-10 0 -17.5 7.5t-7.5 18.5zM424 27q0 9 8 16.5t17 7.5h104 q12 0 19.5 -7.5t7.5 -16.5q0 -12 -7.5 -19.5t-19.5 -7.5h-104q-9 0 -17 8t-8 19zM426 1407q0 12 8 19.5t19 7.5h102q12 0 19.5 -7.5t7.5 -19.5q0 -9 -8 -17t-19 -8h-102q-10 0 -18.5 8t-8.5 17zM514 774q0 9 8.5 18t18.5 9h28q35 0 70 6q9 3 19.5 -3t11.5 -18q3 -20 -19 -30 q-33 -8 -82 -8h-28q-11 0 -19 7t-8 19zM631 27q0 9 8.5 16.5t17.5 7.5h5q44 0 92 10q10 4 19.5 -0.5t12.5 -15.5q6 -23 -18 -33q-66 -12 -106 -12h-5q-10 0 -18 8t-8 19zM633 1403q10 18 28 18h5q49 -14 100 -49q9 -6 11.5 -17t-3.5 -20q-8 -10 -24 -10q-11 0 -13 4 q-39 26 -86 43q-9 2 -15 12q-4 6 -4 12q0 4 1 7zM688 772q0 10 8 17.5t19 7.5h20q-11 0 -18 10q-12 21 8 37q44 27 72 65q6 8 17 8.5t20 -6.5q8 -6 8.5 -17.5t-6.5 -19.5q-33 -41 -82 -73q-4 -4 -15 -4h-4q53 -3 88 -19q9 -2 14.5 -11t2.5 -19q-6 -19 -25 -19h-8 q-46 16 -92 16q-12 0 -19.5 7.5t-7.5 19.5zM805 1262q-5 8 -5 16q0 11 11 20q6 5 14 5q2 -1 5 -1q12 -2 16 -8q34 -48 51 -102q3 -9 -2 -18.5t-14 -12.5q-1 0 -4.5 -1t-4.5 -1q-16 0 -26 17q-7 39 -41 86zM831 85q3 10 11 15q49 31 76 64q17 17 34 0q16 -16 4 -37 q-48 -48 -86 -70q-6 -2 -16 -2q-12 0 -20 11q-4 6 -4 12q0 4 1 7zM844 989q16 50 16 94q4 25 29 25q9 0 16 -8t6 -17q0 -50 -20 -112q-3 -15 -23 -15q-6 0 -8 2q-11 1 -15 11q-2 6 -2 11t1 9zM885 723q11 11 21 11q8 0 16 -7q47 -38 75 -86q6 -8 2.5 -19t-12.5 -14 q-3 -6 -12 -6q-13 0 -23 14q-29 45 -61 70q-10 8 -10 20q0 8 4 17zM971 222q-2 6 -1.5 11t1.5 9q24 44 33 90q2 12 10 17.5t20 2.5q10 -2 16 -10.5t6 -19.5q-10 -48 -38 -103q-7 -14 -23 -14q-8 0 -14 2q-7 4 -10 15zM991 526q-1 4 -1 7q0 6 4 13q6 10 14 13q5 1 9 1 q17 0 25 -19q14 -48 17 -107q0 -24 -23 -28h-2q-11 0 -18.5 7t-7.5 19q-2 37 -17 94z" />
<glyph unicode="C" horiz-adv-x="1579" d="M150 705q0 24 22 28q11 0 19 -8t10 -18q0 -49 10 -97q3 -12 -3.5 -20t-17.5 -10h-4q-23 0 -26 20q-10 87 -10 105zM156 815q2 41 20 107q3 10 12.5 15.5t18.5 2.5q25 -6 18 -35q-16 -62 -18 -98q-2 -9 -9.5 -16t-17.5 -7q-2 0 -4 2q-10 0 -16 9q-4 6 -5 13q0 4 1 7z M188 494q-2 4 -2 8q0 5 3 11q5 10 16 15q10 2 20 -2.5t11 -13.5q4 -12 40 -96q5 -9 2 -19.5t-12 -13.5q-4 -2 -12 -2q-16 0 -25 12q-33 73 -41 101zM211 1022q25 54 55 98q14 21 39 8q18 -15 4 -36q-29 -46 -47 -91q-8 -14 -24 -14q-9 0 -13 2q-9 3 -13 13q-2 5 -2 11 q0 4 1 9zM283 320q2 11 10 16q11 6 21.5 5t15.5 -9l30 -35t39 -41q9 -7 9 -18t-9 -19q-8 -8 -16 -8q-11 0 -23 8q-10 11 -34 38.5t-39 43.5q-5 6 -5 14q0 2 1 5zM328 1190q0 9 8 16q34 38 78 78q7 5 19 3.5t18 -9.5q15 -19 -5 -39q-32 -26 -71 -68q-9 -6 -19 -6q-12 0 -18 4 q-10 9 -10 21zM438 186q6 8 17 9t20 -5q42 -36 86 -57q9 -5 12.5 -16t-2.5 -19q-3 -14 -20 -14q-6 0 -14 4q-54 26 -93 57q-10 9 -10 22q0 9 4 19zM492 1309q-3 8 -3 15q0 14 13 22q70 38 98 51q10 4 21 -1t14 -16q10 -24 -14 -34q-26 -10 -91 -46q-8 -4 -14 -4 q-18 0 -24 13zM623 76q10 23 32 14l99 -24q10 -3 15 -12.5t1 -20.5q-2 -8 -7.5 -14.5t-12.5 -6.5t-7 4q-49 6 -104 29q-11 3 -15 12q-2 5 -3 10q0 4 2 9zM684 1399q-1 4 -1 7q0 16 22 26q88 15 104 16q10 3 18.5 -4t10.5 -19q0 -9 -7 -18t-16 -10q-49 -3 -96 -21h-8 q-8 0 -16 7t-11 16zM823 29q4 22 29 22h41q41 0 59 4q11 0 20 -7.5t9 -18.5q2 -9 -5.5 -18t-19.5 -9q-20 -2 -63 -2h-45q-10 0 -17.5 8.5t-7.5 20.5zM891 1427q0 12 7.5 19.5t19.5 7.5q24 0 106 -10q12 -1 17.5 -10.5t2.5 -20.5q-3 -20 -24 -20h-4q-82 10 -101 10 q-11 -1 -19 7q-6 5 -6 12q0 3 1 5zM1032 37v5q0 8 4 16q6 10 15 10q50 11 98 30q9 4 19.5 -0.5t13.5 -13.5q10 -23 -13 -35q-58 -21 -104 -31h-4q-25 0 -29 19zM1100 1399q1 11 11 17q5 3 10 3t9 -2q52 -17 103 -43q25 -9 14 -35q-8 -14 -28 -14q-1 0 -5.5 1t-5.5 1 q-49 25 -94 39q-10 4 -14 14q-2 5 -2 10t2 9zM1231 104q-3 8 -3 14q0 15 15 21q19 11 84 60q9 7 20 6.5t17 -8.5q6 -10 6 -19q0 -12 -12 -20q-40 -37 -88 -62q-3 -1 -7 -3.5t-6 -2.5q-15 0 -26 14zM1290 1315q8 8 18 9h3q9 0 16 -5q11 -6 33 -23q8 -8 10 -20v-5q0 -8 -4 -14 q-8 -10 -20 -10q-14 0 -17 6q-15 9 -31 25q-13 9 -13 21q0 7 5 16z" />
<glyph unicode="D" horiz-adv-x="1472" d="M213 27q0 8 6 14q-6 9 -6 16v105q0 11 7.5 17.5t19.5 6.5q9 0 16.5 -7t7.5 -17v-105q0 -4 -2 -6q10 -2 18.5 -9t8.5 -15q0 -11 -8.5 -19t-18.5 -8h-22q-11 0 -19 7.5t-8 19.5zM213 264v105q0 26 27 26q10 0 17 -7.5t7 -18.5v-105q0 -9 -7.5 -16.5t-16.5 -7.5 q-12 0 -19.5 7.5t-7.5 16.5zM213 473v105q0 11 7.5 17.5t19.5 6.5q9 0 16.5 -7t7.5 -17v-105q0 -10 -7.5 -18.5t-16.5 -8.5q-12 0 -19.5 8t-7.5 19zM213 680v104q0 12 7.5 19.5t19.5 7.5q9 0 16.5 -7.5t7.5 -19.5v-104q0 -9 -7.5 -17t-16.5 -8q-12 0 -19.5 7.5t-7.5 17.5z M213 889v102q0 12 7.5 19.5t19.5 7.5q9 0 16.5 -7.5t7.5 -19.5v-102q0 -10 -7.5 -18.5t-16.5 -8.5q-12 0 -19.5 8t-7.5 19zM213 1096v104q0 11 7.5 19t19.5 8q9 0 16.5 -8.5t7.5 -18.5v-104q0 -9 -7.5 -18t-16.5 -9q-11 0 -19 8.5t-8 18.5zM213 1305v102q0 24 23 27h4h4h98 q12 0 19.5 -7.5t7.5 -19.5q0 -9 -7.5 -17t-19.5 -8h-78v-77q0 -10 -7.5 -18.5t-16.5 -8.5q-12 0 -19.5 8t-7.5 19zM340 27q0 9 7.5 16.5t19.5 7.5h104q9 0 17 -7.5t8 -16.5q0 -11 -8 -19t-17 -8h-104q-12 0 -19.5 7.5t-7.5 19.5zM420 1407q0 11 8 19t18 8h107q10 -2 18 -10 t7 -19q0 -9 -8 -16t-19 -7h-105q-9 0 -17.5 8t-8.5 17zM549 27q-1 3 -1 6q0 6 4 11q6 8 19 11q53 3 99 15q11 3 20 -3t10 -18q3 -9 -2 -19.5t-14 -11.5q-38 -8 -106 -16h-5q-10 0 -17 7t-7 18zM629 1401q1 9 11 15q6 3 11 3q4 0 8 -2q48 -5 105 -28q9 -3 13.5 -13.5 t0.5 -19.5q-7 -17 -24 -17h-9q-32 14 -96 29q-20 7 -20 27v6zM750 66q-1 5 -1 9q-1 5 1 11q4 10 14 12q46 21 90 45q23 13 37 -8q11 -23 -10 -37q-37 -22 -97 -47q-2 -2 -10 -2q-14 0 -24 17zM825 1335q9 13 24 13q6 0 13 -2q6 -4 88 -60q9 -6 11 -17.5t-5 -19.5 q-8 -10 -20 -10q-8 0 -16 4q-29 25 -84 55q-15 11 -15 23q0 7 4 14zM936 201q7 6 23.5 20.5t28 25.5t20.5 23q17 17 36 2q8 -8 9 -18t-6 -18q-26 -33 -78 -74q-6 -6 -17 -6q-12 0 -20 8q-6 8 -6 17q0 13 10 20zM995 1180q-8 8 -8.5 17t8.5 17q7 9 15 9q9 0 20 -11 q48 -45 72 -79q5 -9 2.5 -20t-10.5 -17q-2 -4 -13 -4q-17 0 -24 10q-24 34 -62 78zM1066 329q-1 3 -1 6q0 8 4 13q33 53 51 88q3 9 13.5 13t19.5 0q9 -5 12.5 -15.5t-0.5 -19.5q-11 -27 -51 -95q-8 -10 -22 -10q-11 0 -15 2q-9 6 -11 18zM1108 1016q-1 5 -1 9q-1 5 1 11 q4 10 14 13q6 4 12 4q4 1 8 -1q10 -4 13 -14q34 -65 43 -98q6 -26 -18 -33h-9q-19 0 -22 15q-18 52 -41 94zM1153 530q15 46 21 97q1 10 10 17t18 5q12 -1 19.5 -10t5.5 -18q-7 -45 -25 -107q-4 -18 -22 -18h-9q-18 10 -18 28v6zM1171 828q-1 10 5 18t16 10q4 1 7 1 q7 -1 13 -5q8 -6 11 -18q8 -44 8 -107q1 -9 -6.5 -18t-16.5 -9h-4q-9 0 -16 7.5t-8 19.5z" />
<glyph unicode="E" horiz-adv-x="1214" d="M213 57v105q0 10 8 17t19 7q10 0 17 -7t7 -17v-105q0 -1 -1 -3t-1 -3h86q12 0 19.5 -7.5t7.5 -16.5q0 -12 -7.5 -19.5t-19.5 -7.5h-104q-10 0 -17.5 8t-7.5 19q0 8 2 10q-8 8 -8 20zM213 264v105q0 12 8 19t19 7q24 0 24 -26v-105q0 -9 -7 -16.5t-17 -7.5t-18.5 7.5 t-8.5 16.5zM213 473v105q0 10 8 17t19 7q10 0 17 -7t7 -17v-105q0 -11 -7 -19t-17 -8t-18.5 8t-8.5 19zM213 680v104q0 12 8 19.5t19 7.5t17.5 -7.5t6.5 -19.5v-41h84q11 0 19 -8t8 -18q0 -12 -7.5 -19.5t-19.5 -7.5h-84v-10q0 -9 -7 -17t-17 -8t-18.5 8t-8.5 17zM213 889 v102q0 12 8 19.5t19 7.5t17.5 -7.5t6.5 -19.5v-102q0 -11 -7 -19t-17 -8t-18.5 8t-8.5 19zM213 1096v104q0 10 8.5 18.5t18.5 8.5t17 -8t7 -19v-104q0 -10 -7 -18.5t-17 -8.5t-18.5 9t-8.5 18zM213 1305v102q0 12 8 19.5t19 7.5h4h104q12 0 19.5 -7.5t7.5 -19.5 q0 -9 -7.5 -17t-19.5 -8h-84v-77q0 -11 -7 -19t-17 -8t-18.5 8t-8.5 19zM426 27q0 9 8.5 16.5t18.5 7.5h102q12 0 19.5 -7.5t7.5 -16.5q0 -12 -7.5 -19.5t-19.5 -7.5h-102q-11 0 -19 7.5t-8 19.5zM426 717q0 9 8.5 17.5t18.5 8.5h102q11 0 19 -8t8 -18q0 -12 -7.5 -19.5 t-19.5 -7.5h-102q-11 0 -19 7.5t-8 19.5zM426 1407q0 12 8 19.5t19 7.5h102q12 0 19.5 -7.5t7.5 -19.5q0 -9 -8 -17t-19 -8h-102q-10 0 -18.5 8t-8.5 17zM633 27q0 9 8.5 16.5t17.5 7.5h105q10 0 18.5 -7.5t8.5 -16.5q0 -12 -8 -19.5t-19 -7.5h-105q-10 0 -18 8t-8 19z M633 717q0 9 8.5 17.5t17.5 8.5h105q10 0 18.5 -8.5t8.5 -17.5q0 -12 -8 -19.5t-19 -7.5h-105q-10 0 -18 8t-8 19zM633 1407q0 11 8 19t18 8h105q11 0 19 -7.5t8 -19.5q0 -9 -8.5 -17t-18.5 -8h-105q-9 0 -17.5 8t-8.5 17zM842 27q0 9 8 16.5t18 7.5h103q11 0 18.5 -7.5 t7.5 -16.5q0 -27 -26 -27h-103q-11 0 -18.5 7.5t-7.5 19.5zM842 717q0 9 8 17.5t18 8.5h50q10 0 17 -8t7 -18q0 -12 -6.5 -19.5t-17.5 -7.5h-50q-11 0 -18.5 7.5t-7.5 19.5zM842 1407q0 12 7.5 19.5t18.5 7.5h103q26 0 26 -27q0 -10 -7.5 -17.5t-18.5 -7.5h-103q-10 0 -18 8 t-8 17z" />
<glyph unicode="F" horiz-adv-x="1239" d="M213 27v106q0 12 8 19.5t19 7.5q26 0 26 -27v-106q0 -11 -7 -19t-19 -8q-10 0 -18.5 8t-8.5 19zM213 240v106q0 10 8 17.5t19 7.5q12 0 19 -7t7 -18v-106q0 -11 -7 -19t-19 -8q-10 0 -18.5 8.5t-8.5 18.5zM213 451v106q0 12 8 19.5t19 7.5q26 0 26 -27v-106 q0 -10 -7.5 -18.5t-18.5 -8.5q-10 0 -18.5 9t-8.5 18zM213 664v106q0 12 8 19.5t19 7.5q26 0 26 -27v-43h84q12 0 19.5 -8t7.5 -19q0 -26 -27 -26h-84v-10q0 -10 -7.5 -18.5t-18.5 -8.5q-10 0 -18.5 9t-8.5 18zM213 877v106q0 11 8.5 19t18.5 8q12 0 19 -8t7 -19v-106 q0 -11 -7 -19t-19 -8q-10 0 -18.5 8t-8.5 19zM213 1087v107q0 12 8 19.5t19 7.5q26 0 26 -27v-107q0 -9 -7 -16.5t-19 -7.5q-10 0 -18.5 7.5t-8.5 16.5zM213 1300v107q0 12 8 19.5t19 7.5h6h104q12 0 19.5 -7.5t7.5 -19.5q0 -10 -8 -18.5t-19 -8.5h-84v-80q0 -10 -7.5 -18 t-18.5 -8q-10 0 -18.5 8.5t-8.5 17.5zM430 700q0 11 7.5 19t19.5 8h106q12 0 19.5 -8t7.5 -19q0 -26 -27 -26h-106q-27 0 -27 26zM430 1407q0 12 7.5 19.5t19.5 7.5h106q12 0 19.5 -7.5t7.5 -19.5q0 -10 -8 -18.5t-19 -8.5h-106q-11 0 -19 8.5t-8 18.5zM643 700q0 11 7.5 19 t19.5 8h106q12 0 19.5 -8t7.5 -19q0 -26 -27 -26h-106q-27 0 -27 26zM643 1407q0 12 7.5 19.5t19.5 7.5h106q12 0 19.5 -7.5t7.5 -19.5q0 -10 -8 -18.5t-19 -8.5h-106q-11 0 -19 8.5t-8 18.5zM856 700q0 11 7.5 19t19.5 8h49q12 0 19 -8t7 -19q0 -26 -26 -26h-49 q-27 0 -27 26zM856 1407q0 12 7.5 19.5t19.5 7.5h106q11 0 18 -7.5t7 -19.5q0 -10 -7.5 -18.5t-17.5 -8.5h-106q-11 0 -19 8.5t-8 18.5z" />
<glyph unicode="G" horiz-adv-x="1667" d="M150 705q0 11 7 19t19 9q9 0 17 -8.5t8 -17.5q0 -21 10 -99q3 -12 -3.5 -20t-17.5 -10h-4q-23 0 -26 20q-10 83 -10 107zM156 815q4 37 20 107q3 10 12.5 15.5t20.5 2.5q24 -6 20 -33q-20 -66 -22 -100q-2 -9 -9.5 -16t-17.5 -7q-2 0 -2 2q-12 0 -18 9q-5 6 -5 13 q0 4 1 7zM188 494q-2 4 -2 8q0 5 3 11q5 10 16 15q11 2 21.5 -3t13.5 -15q3 -9 39 -94q6 -9 2 -19.5t-13 -13.5q-2 -2 -12 -2q-17 0 -20 12q-29 44 -48 101zM214 1003q-2 5 -2 10q0 6 3 11q23 51 53 94q14 21 37 8q19 -13 8 -36q-37 -55 -49 -89q-8 -14 -24 -14q-9 0 -11 2 q-10 3 -15 14zM297 336q8 7 18.5 6t18.5 -10q22 -33 65 -76q9 -7 9 -18t-9 -19q-8 -8 -16 -8q-10 0 -18 8q-28 24 -74 82q-5 6 -5 14q0 15 11 21zM328 1189q0 11 6 17q14 12 40.5 37.5t39.5 38.5q25 12 37 -6q14 -14 -5 -37q-32 -26 -71 -68q-15 -10 -19 -10q-8 0 -20 8 q-8 8 -8 20zM438 184q6 7 18 8.5t19 -4.5q56 -38 88 -53q9 -6 12 -17t-2 -18q-6 -14 -22 -14q-3 0 -7 1t-7 1q-69 40 -93 59q-10 8 -10 20q0 8 4 17zM496 1309q-6 8 -6 16q0 11 14 21q41 24 96 49q9 5 20.5 -1t14.5 -16q5 -9 0.5 -18.5t-14.5 -13.5q-33 -13 -89 -46 q-12 -4 -16 -4q-10 0 -20 13zM621 78q14 24 34 14q17 -5 48.5 -13t48.5 -13q25 -7 22 -33q-8 -21 -26 -21h-7q-53 12 -102 33q-12 1 -17 11q-3 5 -3 11q0 5 2 11zM684 1397v5q0 18 18 30q86 15 107 16q11 3 19.5 -4.5t9.5 -20.5q3 -9 -4.5 -17.5t-18.5 -10.5q-44 -2 -98 -19 h-6q-20 0 -27 21zM833 44.5q8 6.5 19 6.5h102q9 3 18.5 -3.5t10.5 -18.5q0 -10 -8 -18.5t-19 -8.5q-18 -2 -63 -2h-45q-9 0 -16 8t-7 18q0 12 8 18.5zM856 694q0 9 8.5 17t18.5 8h106q10 0 17.5 -8t7.5 -17q0 -12 -7 -19t-18 -7h-106q-11 0 -19 7t-8 19zM891 1425 q0 13 8.5 21t18.5 8q24 0 106 -10q13 -1 21 -11.5t6 -21.5q-6 -20 -29 -20h-6q-78 10 -98 10q-10 0 -18.5 7.5t-8.5 16.5zM1032 37q-1 10 5.5 20t17.5 13q45 10 96 30q9 4 20.5 -0.5t16.5 -13.5q3 -10 -2.5 -21t-14.5 -16q-64 -22 -106 -31h-4q-21 0 -29 19zM1069 694 q0 9 8 17t17 8h106q12 0 19.5 -7.5t7.5 -17.5q0 -26 -27 -26h-106q-10 0 -17.5 7.5t-7.5 18.5zM1100 1397q3 12 12 17q6 2 12 2q5 0 9 -1q61 -21 100 -41q21 -9 14 -35q-8 -14 -24 -14q-7 0 -13 2q-44 24 -96 39q-9 2 -14 12q-2 5 -2 10t2 9zM1232 126q3 11 13 15 q40 24 74 47v86q0 9 8.5 18t18.5 9t17 -8.5t7 -18.5v-94v-6q-3 -9 -10 -16q-45 -36 -92 -60q-6 -6 -13 -6q-11 0 -22 14q-3 5 -3 11q0 4 2 9zM1278 694q0 9 8.5 17t18.5 8h34h4h3q10 0 17 -8t7 -17v-104q0 -12 -6.5 -19.5t-17.5 -7.5t-19 7.5t-8 19.5v78h-14q-11 0 -19 7 t-8 19zM1290 1315q6 8 18 9h3q10 0 18 -5q9 -5 31 -23q13 -11 13 -22q0 -9 -7 -17q-8 -10 -20 -10q-8 0 -17 6q-6 3 -17 11.5t-16 11.5q-10 8 -10 21q0 8 4 18zM1319 381v104q0 11 8.5 19t18.5 8t17 -8t7 -19v-104q0 -12 -6.5 -19.5t-17.5 -7.5t-19 7.5t-8 19.5z" />
<glyph unicode="H" horiz-adv-x="1452" d="M213 27v106q0 12 7.5 19.5t19.5 7.5q10 0 18 -8t8 -19v-106q0 -10 -8.5 -18.5t-17.5 -8.5q-12 0 -19.5 8t-7.5 19zM213 240v106q0 11 7.5 18t19.5 7q9 0 17.5 -7.5t8.5 -17.5v-106q0 -10 -8.5 -18.5t-17.5 -8.5q-12 0 -19.5 8t-7.5 19zM213 451v106q0 12 7.5 19.5 t19.5 7.5q10 0 18 -8t8 -19v-106q0 -9 -8.5 -18t-17.5 -9q-11 0 -19 8.5t-8 18.5zM213 664v106q0 12 7.5 19.5t19.5 7.5q10 0 18 -8t8 -19v-43h88q10 0 18.5 -8.5t8.5 -18.5q0 -12 -8 -19t-19 -7h-88v-10q0 -9 -8.5 -18t-17.5 -9q-11 0 -19 8.5t-8 18.5zM213 877v106 q0 11 7.5 19t19.5 8q9 0 17.5 -8.5t8.5 -18.5v-106q0 -10 -8.5 -18.5t-17.5 -8.5q-12 0 -19.5 8t-7.5 19zM213 1087v107q0 12 7.5 19.5t19.5 7.5q10 0 18 -8t8 -19v-107q0 -9 -8.5 -16.5t-17.5 -7.5q-12 0 -19.5 7.5t-7.5 16.5zM213 1300v107q0 12 7.5 19.5t19.5 7.5 q10 0 18 -8t8 -19v-107q0 -9 -8.5 -17.5t-17.5 -8.5q-11 0 -19 8t-8 18zM434 700q0 10 8 18.5t19 8.5h104q12 0 19.5 -8t7.5 -19q0 -26 -27 -26h-104q-11 0 -19 7t-8 19zM645 700q0 10 9 18.5t18 8.5h106q12 0 19.5 -8t7.5 -19q0 -26 -27 -26h-106q-10 0 -18.5 7.5 t-8.5 18.5zM858 700q0 10 8 18.5t19 8.5h106q12 0 19.5 -8t7.5 -19q0 -26 -27 -26h-106q-11 0 -19 7t-8 19zM1071 700q0 10 8.5 18.5t18.5 8.5h2v43q0 27 26 27q10 0 18.5 -8t8.5 -19v-106q0 -9 -9 -18t-18 -9q-11 0 -18.5 8.5t-7.5 18.5v10h-2q-11 0 -19 7t-8 19zM1100 27 v106q0 27 26 27q10 0 18.5 -8t8.5 -19v-106q0 -10 -9 -18.5t-18 -8.5q-12 0 -19 8t-7 19zM1100 240v106q0 11 7 18t19 7q10 0 18.5 -7.5t8.5 -17.5v-106q0 -10 -9 -18.5t-18 -8.5q-12 0 -19 8t-7 19zM1100 451v106q0 27 26 27q10 0 18.5 -8t8.5 -19v-106q0 -9 -9 -18t-18 -9 q-11 0 -18.5 8.5t-7.5 18.5zM1100 877v106q0 11 7 19t19 8q9 0 18 -8.5t9 -18.5v-106q0 -10 -9 -18.5t-18 -8.5q-12 0 -19 8t-7 19zM1100 1087v107q0 27 26 27q10 0 18.5 -8t8.5 -19v-107q0 -9 -9 -16.5t-18 -7.5q-12 0 -19 7.5t-7 16.5zM1100 1300v107q0 27 26 27 q10 0 18.5 -8t8.5 -19v-107q0 -9 -9 -17.5t-18 -8.5q-11 0 -18.5 8t-7.5 18z" />
<glyph unicode="I" horiz-adv-x="624" d="M227 27v106q0 12 7.5 19.5t19.5 7.5q10 0 18.5 -8t8.5 -19v-106q0 -10 -9 -18.5t-18 -8.5q-12 0 -19.5 8t-7.5 19zM227 240v106q0 11 7.5 18t19.5 7q10 0 18.5 -7.5t8.5 -17.5v-106q0 -10 -9 -18.5t-18 -8.5q-12 0 -19.5 8t-7.5 19zM227 451v106q0 12 7.5 19.5t19.5 7.5 q10 0 18.5 -8t8.5 -19v-106q0 -9 -9 -18t-18 -9q-11 0 -19 8.5t-8 18.5zM227 664v106q0 12 7.5 19.5t19.5 7.5q10 0 18.5 -8t8.5 -19v-106q0 -9 -9 -18t-18 -9q-11 0 -19 8.5t-8 18.5zM227 877v106q0 11 7.5 19t19.5 8q9 0 18 -8.5t9 -18.5v-106q0 -10 -9 -18.5t-18 -8.5 q-12 0 -19.5 8t-7.5 19zM227 1087v107q0 12 7.5 19.5t19.5 7.5q10 0 18.5 -8t8.5 -19v-107q0 -9 -9 -16.5t-18 -7.5q-12 0 -19.5 7.5t-7.5 16.5zM227 1300v107q0 12 7.5 19.5t19.5 7.5q10 0 18.5 -8t8.5 -19v-107q0 -9 -9 -17.5t-18 -8.5q-11 0 -19 8t-8 18z" />
<glyph unicode="J" horiz-adv-x="1216" d="M92 320q3 11 12 16q10 3 20 -2.5t13 -14.5q27 -56 47 -86q6 -8 5 -19t-9 -17q-12 -4 -16 -4q-15 0 -21 12q-34 49 -51 96q-2 5 -2 10t2 9zM213 158q21 20 37 4q37 -37 80 -58q22 -12 10 -36q-6 -13 -23 -13q-4 0 -12 4q-44 21 -90 64q-10 10 -10 19q0 8 8 16zM387 49 q11 22 31 19q56 -17 100 -17q9 0 16 -8t7 -20q0 -9 -8 -16t-19 -7q-49 0 -108 18q-9 1 -15 12q-5 7 -5 14q0 3 1 5zM592 33q0 7 4 14q7 9 16 10q56 13 95 29q9 6 19 2t15 -14q7 -26 -14 -35q-52 -25 -104 -31h-5q-26 0 -26 25zM786 98q-7 9 -7 17q0 11 14 20q36 27 69 68 q6 8 17.5 8.5t19.5 -6.5q18 -14 2 -37q-41 -45 -78 -74q-6 -6 -14 -6q-13 0 -23 10zM918 285q25 59 32 92q3 10 12 15.5t19 2.5q25 -7 18 -30q-8 -52 -38 -103q-3 -16 -21 -16q-10 0 -12 4q-15 10 -15 21q0 7 5 14zM961 473v4v101q0 10 8 17t18 7q12 0 19.5 -6.5t7.5 -17.5 v-101v-4q0 -11 -7.5 -19t-19.5 -8q-9 0 -17.5 8.5t-8.5 18.5zM961 680v104q0 11 8 19t18 8q12 0 19.5 -7.5t7.5 -19.5v-104q0 -10 -8 -17.5t-19 -7.5q-9 0 -17.5 8t-8.5 17zM961 889v102q0 11 8 19t18 8q12 0 19.5 -7.5t7.5 -19.5v-102q0 -11 -7.5 -19t-19.5 -8 q-9 0 -17.5 8.5t-8.5 18.5zM961 1096v104q0 10 8.5 18.5t17.5 8.5q12 0 19.5 -8t7.5 -19v-104q0 -10 -8 -18.5t-19 -8.5q-9 0 -17.5 9t-8.5 18zM961 1305v102q0 11 8 19t18 8q12 0 19.5 -7.5t7.5 -19.5v-102q0 -11 -7.5 -19t-19.5 -8q-9 0 -17.5 8.5t-8.5 18.5z" />
<glyph unicode="K" horiz-adv-x="1464" d="M213 27v106q0 12 7 19.5t18 7.5t18.5 -7.5t7.5 -19.5v-106q0 -11 -8 -19t-18 -8t-17.5 8t-7.5 19zM213 240v106q0 10 7.5 17.5t17.5 7.5q11 0 18.5 -7.5t7.5 -17.5v-106q0 -11 -8 -19t-18 -8t-17.5 8t-7.5 19zM213 451v106q0 12 7 19.5t18 7.5t18.5 -7.5t7.5 -19.5v-88 l45 43q7 8 18 8t19 -8t8 -19t-8 -18l-74 -74q-8 -8 -22 -8q-11 0 -19 8q-9 10 -6 27q-12 6 -12 23zM213 664v106q0 12 7 19.5t18 7.5t18.5 -7.5t7.5 -19.5v-106q0 -9 -8 -18t-18 -9t-17.5 8.5t-7.5 18.5zM213 877v106q0 11 7.5 19t17.5 8t18 -8t8 -19v-106q0 -11 -8 -19 t-18 -8t-17.5 8t-7.5 19zM213 1087v107q0 12 7 19.5t18 7.5t18.5 -7.5t7.5 -19.5v-107q0 -9 -8 -16.5t-18 -7.5t-17.5 7.5t-7.5 16.5zM213 1300v107q0 12 7 19.5t18 7.5t18.5 -7.5t7.5 -19.5v-107q0 -9 -8 -17.5t-18 -8.5t-17.5 8.5t-7.5 17.5zM383 549q-8 10 -8.5 19.5 t8.5 17.5l74 78q7 8 20 8t17 -8q9 -8 9 -19.5t-9 -17.5l-74 -78q-8 -8 -19 -8q-6 0 -18 8zM528 719q0 11 7 18l73 76q8 7 19 7t18 -7l4 -8q7 -3 13 -8l65 -82q7 -7 5.5 -20t-11.5 -17q-2 -6 -16 -6q-13 0 -21 8l-57 76l-56 -56q-12 -8 -18 -8q-10 0 -18 8q-7 8 -7 19z M674 870q0 12 8 19l76 76q8 7 20 7t19 -7q13 -20 0 -39l-76 -76q-8 -8 -19 -8q-12 0 -20 8t-8 20zM752 635q8 7 19 6.5t17 -8.5l70 -84q7 -7 5.5 -18.5t-11.5 -18.5q-8 -4 -14 -4q-16 0 -23 10l-65 80q-7 8 -7 19q0 12 9 18zM826 1019q0 11 8 19l75 74q7 8 18 8t19 -8t8 -19 t-8 -18l-76 -74q-5 -8 -18 -8q-10 0 -18 8q-8 7 -8 18zM885 436q-8 8 -8 17q0 10 10 20q7 7 19 5.5t18 -11.5l69 -80q6 -9 4.5 -20.5t-10.5 -18.5q-12 -6 -14 -6q-13 0 -23 10zM976 1170q0 12 7 20l78 74q5 8 16.5 8t20.5 -8q8 -8 8 -19t-8 -18l-78 -74q-8 -8 -19 -8 q-10 0 -18 8q-7 5 -7 17zM1022 307q7 6 18.5 5.5t18.5 -7.5l67 -82q16 -23 -2 -37q-8 -8 -16 -8q-13 0 -23 10l-65 82q-7 7 -7 17q0 11 9 20zM1128 1319q0 11 7 18l73 78q8 6 19 6t18 -6q7 -7 7 -19.5t-7 -21.5l-74 -74q-12 -8 -18 -8q-10 0 -18 8q-7 8 -7 19zM1157 143 q8 7 18 7t21 -9l66 -82q7 -8 6 -19v-2q0 -12 -8 -18q-6 -4 -17 -4q-13 0 -22 9l-68 81q-5 6 -5 14q0 15 9 23z" />
<glyph unicode="L" horiz-adv-x="1153" d="M213 57v105q0 10 8 17t19 7q10 0 17 -7t7 -17v-105q0 -1 -1 -3t-1 -3h86q9 0 18 -7.5t9 -16.5q0 -11 -8.5 -19t-18.5 -8h-104q-11 0 -18 7.5t-7 19.5q0 8 2 10q-8 8 -8 20zM213 264v105q0 12 8 19t19 7q24 0 24 -26v-105q0 -9 -7 -16.5t-17 -7.5t-18.5 7.5t-8.5 16.5z M213 473v105q0 10 8 17t19 7q10 0 17 -7t7 -17v-105q0 -11 -7 -19t-17 -8t-18.5 8t-8.5 19zM213 680v104q0 12 8 19.5t19 7.5t17.5 -7.5t6.5 -19.5v-104q0 -9 -7 -17t-17 -8t-18.5 8t-8.5 17zM213 889v102q0 12 8 19.5t19 7.5t17.5 -7.5t6.5 -19.5v-102q0 -11 -7 -19t-17 -8 t-18.5 8t-8.5 19zM213 1096v104q0 10 8.5 18.5t18.5 8.5t17 -8t7 -19v-104q0 -10 -7 -18.5t-17 -8.5t-18.5 9t-8.5 18zM213 1305v102q0 12 8 19.5t19 7.5t17.5 -7.5t6.5 -19.5v-102q0 -11 -7 -19t-17 -8t-18.5 8t-8.5 19zM426 27q0 9 7.5 16.5t19.5 7.5h102q10 0 18.5 -7.5 t8.5 -16.5q0 -12 -8 -19.5t-19 -7.5h-102q-12 0 -19.5 7.5t-7.5 19.5zM633 27q0 9 8 16.5t18 7.5h105q9 0 18 -7.5t9 -16.5q0 -11 -8.5 -19t-18.5 -8h-105q-11 0 -18.5 7.5t-7.5 19.5zM842 27q0 9 7 16.5t19 7.5h103q10 0 18 -7.5t8 -16.5q0 -12 -7.5 -19.5t-18.5 -7.5h-103 q-26 0 -26 27z" />
<glyph unicode="M" horiz-adv-x="1728" d="M213 27v106q0 11 7.5 19t19.5 8t19 -8t7 -19v-106q0 -11 -7 -19t-19 -8t-19.5 8t-7.5 19zM213 238v106q0 12 7.5 19.5t19.5 7.5q26 0 26 -27v-106q0 -10 -7.5 -17.5t-18.5 -7.5q-12 0 -19.5 7.5t-7.5 17.5zM213 451v106q0 11 7.5 19t19.5 8t19 -8t7 -19v-106 q0 -11 -7 -19t-19 -8t-19.5 8t-7.5 19zM213 662v106q0 12 7.5 19.5t19.5 7.5q26 0 26 -27v-106q0 -10 -7.5 -17.5t-18.5 -7.5q-12 0 -19.5 7.5t-7.5 17.5zM213 874v107q0 12 7.5 19.5t19.5 7.5q26 0 26 -27v-107q0 -10 -7.5 -18t-18.5 -8t-19 8t-8 18zM213 1085v107 q0 12 7.5 19.5t19.5 7.5q26 0 26 -27v-107q0 -9 -7 -16.5t-19 -7.5t-19.5 7.5t-7.5 16.5zM213 1298v107q0 12 7.5 19.5t19.5 7.5q6 0 8 -2q4 0 18 -9l62 -88q6 -8 4 -18.5t-10 -16.5q-6 -6 -17 -6q-10 0 -20 13l-19 24v-31q0 -10 -7.5 -18t-18.5 -8t-19 8t-8 18zM346 1217 q-6 9 -6 17q0 10 10 19q10 8 21.5 6t15.5 -12l64 -84q6 -9 4 -20t-11 -17q-4 -6 -14 -6q-14 0 -24 10zM475 1081q24 17 37 -6l61 -84q17 -24 -6 -37q-4 -6 -14 -6q-13 0 -23 10l-59 86q-5 8 -5 17q0 13 9 20zM600 909q7 8 19 6t18 -12l61 -84q13 -22 -6 -37q-6 -6 -16 -6 q-14 0 -21 10l-61 88q-6 6 -6 14q0 14 12 21zM713 720q2 12 12 19q7 6 18.5 4t18.5 -12l61 -84q4 -16 2 -22q-3 8 4 22l66 84q4 10 15.5 12t21.5 -4q8 -8 9 -18.5t-5 -18.5l-64 -88q-2 -10 -20 -10q-8 0 -14 6q-9 3 -13 15q0 -11 -8 -15q-9 -6 -16 -6q-16 0 -21 10l-63 88 q-5 5 -5 13q0 2 1 5zM954 819l62 84q7 10 18.5 12t18.5 -6q10 -6 12 -17t-4 -18l-64 -88q-7 -10 -20 -10q-10 0 -16 6q-12 9 -12 21q0 7 5 16zM1079 991l62 84q6 10 18 12t19 -6q9 -6 11 -17t-5 -20l-62 -86q-10 -10 -22 -10q-11 0 -15 6q-11 9 -11 20q0 8 5 17zM1198 1147 q0 8 6 16l62 84q13 23 37 6q18 -15 4 -36l-60 -87q-10 -10 -22 -10q-11 0 -15 6q-12 7 -12 21zM1322 1315q-1 3 -1 6q0 7 4 12l64 88q9 9 16 9q2 2 8 2q12 0 19.5 -7.5t7.5 -19.5v-107q0 -10 -8 -18t-19 -8q-9 0 -18 8.5t-9 17.5v29l-16 -22q-6 -13 -22 -13q-11 0 -15 6 q-9 6 -11 17zM1386 27v106q0 10 9 18.5t18 8.5q12 0 19.5 -8t7.5 -19v-106q0 -11 -7.5 -19t-19.5 -8q-9 0 -18 8.5t-9 18.5zM1386 238v106q0 11 8.5 19t18.5 8q12 0 19.5 -7.5t7.5 -19.5v-106q0 -10 -8 -17.5t-19 -7.5q-9 0 -18 8t-9 17zM1386 451v106q0 10 9 18.5t18 8.5 q12 0 19.5 -8t7.5 -19v-106q0 -11 -7.5 -19t-19.5 -8q-9 0 -18 8.5t-9 18.5zM1386 662v106q0 11 8.5 19t18.5 8q12 0 19.5 -7.5t7.5 -19.5v-106q0 -10 -8 -17.5t-19 -7.5q-9 0 -18 8t-9 17zM1386 874v107q0 11 8.5 19t18.5 8q12 0 19.5 -7.5t7.5 -19.5v-107q0 -10 -8 -18 t-19 -8q-9 0 -18 8.5t-9 17.5zM1386 1085v107q0 11 8.5 19t18.5 8q12 0 19.5 -7.5t7.5 -19.5v-107q0 -9 -7.5 -16.5t-19.5 -7.5q-9 0 -18 7.5t-9 16.5z" />
<glyph unicode="N" horiz-adv-x="1579" d="M213 49v105q0 10 8.5 17t18.5 7q26 0 26 -24v-105q0 -10 -7.5 -18t-18.5 -8q-9 0 -18 8.5t-9 17.5zM213 256v104q0 11 8.5 19t18.5 8q26 0 26 -27v-104q0 -10 -7.5 -17.5t-18.5 -7.5q-9 0 -18 8t-9 17zM213 465v102q0 11 8.5 19t18.5 8q26 0 26 -27v-102q0 -11 -7 -19 t-19 -8q-9 0 -18 8.5t-9 18.5zM213 672v102q0 11 8.5 19t18.5 8q26 0 26 -27v-102q0 -10 -7.5 -18.5t-18.5 -8.5q-9 0 -18 9t-9 18zM213 879v104q0 10 8.5 17.5t18.5 7.5q12 0 19 -7t7 -18v-104q0 -10 -7.5 -18.5t-18.5 -8.5q-9 0 -18 9t-9 18zM213 1085v105q0 11 8.5 19 t18.5 8q26 0 26 -27v-105q0 -9 -7 -16.5t-19 -7.5q-9 0 -18 7.5t-9 16.5zM213 1294v103v8q0 10 10 20q10 6 18 6q11 0 19 -10l62 -86q6 -7 4 -18.5t-11 -18.5q-4 -2 -16 -2q-15 0 -20 11l-13 16v-29q0 -11 -7 -18.5t-19 -7.5q-9 0 -18 8t-9 18zM340 1221q-5 8 -5 16 q0 11 11 20q8 6 19.5 4t17.5 -10l59 -84q7 -8 5 -18t-11 -16q-5 -5 -14 -5q-15 0 -23 11zM467 1090q8 7 18.5 4.5t18.5 -11.5l59 -82q13 -23 -4 -36q-7 -7 -16 -7q-14 0 -21 11l-61 84q-5 7 -5 16q0 14 11 21zM578 905q2 11 12 15q8 7 17.5 5.5t15.5 -10.5l63 -84 q5 -9 3.5 -19.5t-9.5 -14.5q-4 -6 -14 -6q-16 0 -23 10l-61 84q-4 7 -4 15v5zM709 752q9 7 19.5 6t16.5 -10l62 -84q6 -9 4 -20t-12 -17q-4 -4 -15 -4q-15 0 -20 10l-59 86q-5 7 -5 15q0 11 9 18zM831 586q7 6 18 4t17 -12l60 -82q17 -23 -4 -37q-12 -4 -17 -4q-13 0 -20 10 l-60 84q-5 6 -5 14q0 15 11 23zM952 418q8 6 18.5 3.5t18.5 -11.5l60 -84q13 -19 -7 -35q-12 -6 -14 -6q-10 0 -20 10l-62 86q-5 6 -5 14q0 13 11 23zM1063 232q2 12 12 18q20 12 33 -8l61 -84q6 -7 4.5 -19t-8.5 -18q-12 -4 -16 -4q-11 0 -21 10l-61 86q-5 5 -5 13q0 3 1 6 zM1184 64q2 10 10 16q11 7 20 4v70q0 10 8 17t19 7t18 -7t7 -17v-105q0 -9 -6 -18q3 -16 -13 -29q-2 -2 -12 -2q-18 0 -23 10l-24 35q-4 6 -4 13v6zM1214 256v104q0 12 8 19.5t19 7.5t18 -7.5t7 -19.5v-104q0 -9 -7.5 -17t-17.5 -8t-18.5 8t-8.5 17zM1214 465v102 q0 12 8 19.5t19 7.5t18 -7.5t7 -19.5v-102q0 -11 -7.5 -19t-17.5 -8q-11 0 -19 8t-8 19zM1214 672v102q0 12 8 19.5t19 7.5t18 -7.5t7 -19.5v-102q0 -10 -7.5 -18.5t-17.5 -8.5t-18.5 9t-8.5 18zM1214 879v104q0 10 8 17.5t19 7.5t18 -7t7 -18v-104q0 -10 -7.5 -18.5 t-17.5 -8.5t-18.5 9t-8.5 18zM1214 1085v105q0 12 8 19.5t19 7.5t18 -7.5t7 -19.5v-105q0 -9 -7.5 -16.5t-17.5 -7.5t-18.5 7.5t-8.5 16.5zM1214 1294v103q0 12 8 19t19 7t18 -7t7 -19v-103q0 -11 -7.5 -18.5t-17.5 -7.5q-11 0 -19 8t-8 18z" />
<glyph unicode="O" horiz-adv-x="1740" d="M150 694v33q0 37 6 74q0 10 7.5 17t16.5 5q12 0 19.5 -7.5t5.5 -18.5q0 -11 -2 -35t-2 -35v-31q3 -12 -5 -20t-18 -8h-2q-23 0 -26 26zM162 589q0 8 5 15q6 9 15 12q25 3 33 -20q5 -40 27 -102q7 -21 -19 -31q-4 -2 -8 -2q-18 0 -25 18q-28 78 -28 110zM172 907 q12 53 33 107q3 10 14 13.5t21 0.5q9 -5 14 -15.5t2 -19.5q-23 -53 -33 -96q-7 -20 -26 -20h-7q-10 3 -16 12q-4 6 -3 12q0 3 1 6zM233 400q3 11 13 14q9 6 19.5 2t15.5 -13q23 -44 53 -88q6 -8 3.5 -19t-11.5 -17q-5 -5 -13 -5q-14 0 -24 13q-39 56 -53 92q-4 7 -4 14 q0 3 1 7zM252 1090v5q0 8 4 15q16 28 59 90q21 20 37 4q9 -6 9.5 -17t-5.5 -20q-53 -77 -57 -84q-8 -12 -23 -12q-8 0 -12 2q-10 6 -12 17zM358 203q-8 8 -8 17.5t8 19.5q9 8 21 8t18 -8q46 -46 76 -66q9 -8 11 -18.5t-5 -18.5q-7 -10 -22 -10q-11 0 -15 2q-61 53 -84 74z M389 1243q-8 6 -8 14q0 9 12 21q39 43 86 68q7 6 17 3.5t16 -12.5q6 -7 4 -16.5t-10 -15.5q-44 -32 -80 -66q-8 -4 -18 -4q-11 0 -19 8zM522 109q18 22 39 10q47 -26 90 -37q10 -3 15.5 -14t3.5 -21q-7 -18 -27 -18h-6q-18 6 -100 41q-17 12 -17 28q0 5 2 11zM560 1384 q4 10 13 13q46 21 105 37q27 4 33 -21q2 -10 -4 -19t-17 -12q-40 -10 -96 -30q-2 -4 -10 -4q-17 0 -23 16q-3 5 -3 10t2 10zM721 33q1 12 10.5 19t18.5 5q29 -6 88 -6h16q9 0 17 -7.5t8 -16.5q0 -12 -7 -19.5t-18 -7.5h-16q-64 0 -93 6q-12 1 -19 9.5t-5 17.5zM760 1423 q0 10 7.5 19.5t18.5 9.5q14 2 52 2q39 0 57 -2q11 0 18.5 -10.5t4.5 -20.5q0 -10 -8 -17t-17 -7h-4q-14 4 -51 4q-34 0 -50 -4q-10 0 -18.5 7.5t-9.5 18.5zM932 31q-1 4 -1 8q-1 7 3 13q6 8 18 9q25 5 95 29q24 9 34 -12q6 -28 -12 -37q-59 -20 -106 -31h-7q-20 0 -24 21z M971 1413q1 9 13 15q9 4 15 4h5q59 -16 100 -37q10 -3 14.5 -13.5t-0.5 -19.5q-6 -16 -24 -16q-9 0 -11 2q-34 16 -92 34q-11 1 -17 10q-4 6 -4 13q0 4 1 8zM1126 118q3 11 13 17q44 20 82 58q23 12 39 -7q14 -17 -5 -36q-44 -35 -90 -60q-8 -4 -12 -4q-19 0 -25 12 q-3 6 -3 12q0 4 1 8zM1162 1315q-1 4 0 7q0 7 3 13q6 9 17 11q4 1 7 0q7 0 13 -3q37 -26 84 -69q9 -8 10 -18.5t-8 -18.5q-5 -8 -20 -8q-11 0 -17 6q-33 31 -77 63q-10 6 -12 17zM1296 262q27 30 62 80q13 19 35 8q9 -6 11 -17t-5 -20q-16 -27 -64 -88q-12 -8 -18 -8 q-7 0 -19 6q-10 10 -10 20t8 19zM1325 1198q7 6 16 6h4q11 -2 15 -12q31 -31 63 -90q4 -9 1 -20t-11 -15q-3 0 -7 -2t-7 -2q-16 0 -23 14q-21 38 -55 84q-6 7 -6 16q0 14 10 21zM1404 412q-2 5 -1 10q0 5 2 10q33 79 37 94q1 10 12.5 16t20.5 3t14.5 -14.5t3.5 -20.5 q-9 -28 -39 -100q-3 -6 -11.5 -11.5t-15.5 -5.5q-1 0 -5 1t-5 1q-9 6 -13 17zM1419 983q-1 6 -1 11q0 19 18 26q7 2 14 2q17 0 23 -16q18 -52 30 -105q2 -11 -4 -20.5t-16 -12.5h-6q-20 0 -27 23q-15 60 -31 92zM1468 727q0 41 -2 61q0 11 7 19t16 8h3q10 0 18 -5 q8 -6 8 -17q4 -20 4 -66q0 -35 -9 -109q0 -9 -7.5 -15.5t-16.5 -6.5h-4q-9 2 -15 10q-6 7 -6 16z" />
<glyph unicode="P" horiz-adv-x="1193" d="M213 27v106q0 12 8 19.5t19 7.5q26 0 26 -27v-106q0 -11 -7 -19t-19 -8q-10 0 -18.5 8t-8.5 19zM213 240v106q0 10 8 17.5t19 7.5q12 0 19 -7t7 -18v-106q0 -11 -7 -19t-19 -8q-10 0 -18.5 8.5t-8.5 18.5zM213 451v106q0 12 8 19.5t19 7.5q26 0 26 -27v-106 q0 -10 -7.5 -18.5t-18.5 -8.5q-10 0 -18.5 9t-8.5 18zM213 664v106q0 12 8 19.5t19 7.5q26 0 26 -27v-100q1 0 4.5 1t5.5 1h107q9 0 18 -9t9 -18q0 -11 -8.5 -19t-18.5 -8h-107q-23 0 -26 21q-4 -2 -10 -2q-10 0 -18.5 9t-8.5 18zM213 877v106q0 11 8.5 19t18.5 8 q12 0 19 -8t7 -19v-106q0 -11 -7 -19t-19 -8q-10 0 -18.5 8t-8.5 19zM213 1087v107q0 12 8 19.5t19 7.5q26 0 26 -27v-107q0 -9 -7 -16.5t-19 -7.5q-10 0 -18.5 7.5t-8.5 16.5zM213 1300v107q0 12 8 19.5t19 7.5h2h2h104q12 0 19.5 -7.5t7.5 -19.5q0 -10 -8 -18.5t-19 -8.5 h-82v-80q0 -10 -7.5 -18t-18.5 -8q-10 0 -18.5 8.5t-8.5 17.5zM428 1407q0 12 8 19.5t19 7.5h106q12 0 19.5 -7.5t7.5 -19.5q0 -10 -8 -18.5t-19 -8.5h-106q-10 0 -18.5 9t-8.5 18zM463 645q0 10 7.5 18.5t18.5 8.5h107q9 0 18 -9t9 -18q0 -11 -8.5 -19t-18.5 -8h-107 q-26 0 -26 27zM641 1407q0 12 8 19.5t19 7.5h2q47 0 110 -17q10 -1 16 -11.5t3 -19.5q-6 -18 -25 -18h-8q-62 12 -96 12h-2q-10 0 -18.5 9t-8.5 18zM676 645q-1 2 -1 5q0 7 6 13q8 9 17 9q54 3 97 24q24 4 34 -16q3 -10 -2 -20t-14 -15q-53 -18 -108 -27h-3q-11 0 -18.5 7.5 t-7.5 19.5zM844 1344v5q0 8 4 15q8 13 20 13q8 0 17 -5q47 -26 84 -72q9 -8 9 -18t-9 -18q-6 -9 -19 -9q-10 0 -18 11q-36 39 -76 61q-10 6 -12 17zM883 741q33 24 67 68q6 10 18 12t21 -6q9 -6 10 -17t-6 -20q-37 -43 -80 -80q-12 -6 -16 -6q-7 0 -20 13q-6 7 -6 15 q0 14 12 21zM986 1204q3 10 13 15q5 4 12 4q4 0 8 -2q11 -4 17 -13q23 -51 35 -108q3 -24 -22 -31h-5q-23 0 -26 23q-8 41 -29 92q-4 7 -4 14q0 2 1 6zM999 897q20 49 23 96q0 9 9.5 16t21.5 7q9 -2 15.5 -10.5t6.5 -18.5q-3 -52 -26 -110q-7 -17 -23 -17q-8 0 -12 2 q-9 6 -14 16q-3 6 -3 11q0 4 2 8z" />
<glyph unicode="Q" horiz-adv-x="1728" d="M135 696v33q0 24 4 74q0 12 8 20t19 6q24 -3 24 -32q-4 -40 -4 -68q0 -21 2 -31q0 -23 -26 -26q-10 0 -17.5 7.5t-9.5 16.5zM147 590v5q0 19 21 23q11 1 20 -4.5t11 -13.5q9 -54 28 -98q3 -11 -2.5 -20.5t-15.5 -10.5q-4 -2 -8 -2q-16 0 -29 16q-2 8 -11.5 45.5 t-13.5 59.5zM156 913q5 19 17.5 57.5t14.5 45.5q15 26 35 16q10 -4 15 -15t0 -20q-29 -95 -29 -96q-10 -20 -27 -20h-4q-12 3 -18 12q-4 7 -4 15v5zM216 404q3 10 13 16q10 5 21.5 1.5t15.5 -13.5q23 -48 49 -84q6 -8 4 -19t-8 -16q-4 -6 -16 -6q-14 0 -19 10q-44 59 -59 94 q-3 4 -3 9q0 4 2 8zM238 1114q12 21 61 88q16 20 37 6q19 -16 6 -37q-30 -30 -59 -86q-7 -10 -21 -10q-6 0 -14 4q-14 7 -14 20q0 6 4 15zM336 227.5q0 10.5 8 18.5q6 8 17 8t18 -8q9 -8 25.5 -23t28.5 -25t24 -18q8 -6 9.5 -16.5t-5.5 -18.5q-6 -12 -19 -12q-8 0 -16 4 q-6 5 -26.5 22t-33 28.5t-22.5 23.5q-8 6 -8 16.5zM366 1264q0 12 7 16q37 34 86 68q9 7 20.5 4.5t16.5 -11.5q12 -21 -7 -36q-40 -25 -77 -62q-6 -6 -19 -6q-14 0 -20 6q-7 9 -7 21zM504 94q-1 4 -1 8q0 6 3 11q4 10 15.5 14.5t21.5 -0.5q56 -29 96 -41q9 -5 14 -14.5 t2 -18.5q-7 -20 -26 -20q-4 0 -6 2q-49 13 -103 43q-11 6 -16 16zM527 -143q4 10 14 14l98 43q23 11 33 -12q2 0 2 -2q1 -1 3 -7.5t3 -7.5q4 -24 -18 -30q-35 -8 -66 -21l-25 -10q-12 -4 -14 -4q-12 0 -18 6q-11 7 -11 12q-3 5 -3 10t2 9zM542 1384q4 10 15 15q16 5 51 18.5 t54 18.5q10 1 19 -4.5t11 -14.5q3 -27 -18 -33q-20 -5 -92 -30q-4 -2 -11 -2q-22 0 -28 12q-2 6 -2 11t1 9zM705 41q6 25 32 22q38 -6 82 -6q2 0 7 1t8 1q10 0 18 -8.5t8 -19.5t-7 -19t-17 -8h-17q-30 0 -92 8q-11 2 -17 10.5t-5 18.5zM720 -58q3 11 13 17l94 43 q20 10 35 -12q4 -9 0.5 -20t-12.5 -17l-70 -31q42 0 88 -6q25 -7 19 -33q-3 -18 -25 -18h-6q-40 6 -76 6h-20q-10 -1 -18.5 7t-8.5 20l6 12q-15 4 -18 12q-3 5 -3 11q0 4 2 9zM745 1423q0 11 7.5 19.5t17.5 9.5q9 0 25 1t24 1q9 0 28.5 -1t29.5 -1q11 -2 18.5 -10.5 t7.5 -18.5q-1 -10 -9.5 -17t-19.5 -7h-2q-18 2 -53 2h-47q-9 -2 -18 5t-9 17zM909 12q-3 4 -3 9q0 7 5 14v2q-2 11 5.5 20.5t19.5 10.5q71 18 94 28q8 3 19.5 -1.5t15.5 -14.5q3 -9 -2.5 -20t-15.5 -15h-3q0 -1 -3 -2q-2 -1 -3 -2l-94 -43q-1 0 -4 -1t-4 -1q-17 0 -27 16z M938 -152q-2 4 -2 7q0 6 4 12q3 9 13 12t20 0q4 -3 10 -6.5t8 -5.5q12 -5 36.5 -18.5t37.5 -18.5q9 -4 12 -15.5t0 -21.5q-8 -14 -26 -14q-1 0 -5 1t-8 1q-12 8 -35 21.5t-34 21.5q-4 1 -10.5 5t-8.5 5q-9 5 -12 14zM954 1411q1 12 10 19q8 4 16 4h5q16 -4 102 -39 q10 -3 14 -13t1 -20q-7 -14 -25 -14q-8 0 -10 4q-86 26 -96 28q-10 4 -15 14q-3 5 -3 11q0 3 1 6zM1109 124q3 13 11 21q56 33 80 54q18 18 41 -2q6 -9 4.5 -20t-10.5 -15q-49 -46 -90 -68q-2 -2 -12 -2q-14 0 -21 10q-4 6 -4 14q0 4 1 8zM1122 -229q5 11 15 15.5t20 0.5 q55 -20 96 -27q11 -2 18.5 -9.5t6.5 -18.5q-8 -23 -29 -23h-4q-50 11 -106 29q-9 5 -15 14q-3 7 -3 13q0 3 1 6zM1140 1321q0 9 5 16q5 8 17 11q4 2 8 2q6 0 12 -4q77 -61 86 -70q9 -8 9 -19.5t-9 -17.5q-5 -8 -19 -8q-11 0 -20 6q-30 30 -78 63q-11 5 -11 21zM1269 249.5 q0 10.5 9 16.5q42 57 57 82q15 21 37 10q19 -19 6 -36q-33 -56 -63 -89q-9 -6 -19 -6q-14 0 -18 4q-9 8 -9 18.5zM1296 1184q2 12 11 16q7 7 17 7l1 -1q10 0 16 -8q37 -50 60 -92q7 -9 5 -19t-13 -16q-4 -4 -15 -4q-14 0 -20 14q-12 22 -58 84q-4 5 -4 13v6zM1329 -270 q-2 8 6 17t17 9q41 3 98 19q9 4 19.5 -1t13.5 -16q4 -10 -1.5 -19.5t-17.5 -12.5q-65 -19 -108 -21h-4q-8 0 -15.5 7.5t-7.5 17.5zM1382 438q31 59 39 92q3 11 13 16.5t22 2.5q9 -3 15.5 -12.5t3.5 -18.5q-19 -59 -41 -104q-8 -15 -23 -15q-10 0 -14 4q-17 5 -17 22 q0 6 2 13zM1399 991q-2 4 -2 8q0 14 18 27q4 1 7 1l13 -3q10 -5 15 -14q28 -78 33 -107q4 -9 -2.5 -18.5t-18.5 -12.5q-1 0 -2 -1t-2 -1q-21 0 -28 25q-7 36 -31 96zM1450 729q0 41 -4 59q-1 12 8 21.5t21 11.5q9 0 16.5 -7t7.5 -19q2 -23 2 -66q0 -53 -6 -108 q-1 -9 -7.5 -15t-14.5 -6h-9q-11 2 -17 10q-5 8 -5 16zM1527 -199q2 11 11 15q20 12 72 49q9 5 18 5h4q10 -1 15 -7q6 -7 6 -16q0 -14 -11 -21q-31 -31 -77 -55q-4 -2 -11 -2q-21 0 -24 12q-4 6 -4 14q0 3 1 6z" />
<glyph unicode="R" horiz-adv-x="1280" d="M184 37v104q0 12 8 19.5t19 7.5q12 0 19.5 -7.5t7.5 -19.5v-104q0 -10 -8 -18.5t-19 -8.5q-10 0 -18.5 9t-8.5 18zM184 248v104q0 12 8 19.5t19 7.5q12 0 19.5 -7.5t7.5 -19.5v-104q0 -10 -8 -18.5t-19 -8.5q-10 0 -18.5 9t-8.5 18zM184 459v104q0 12 8 19.5t19 7.5 q12 0 19.5 -7.5t7.5 -19.5v-104q0 -11 -7.5 -19t-19.5 -8q-11 0 -19 8t-8 19zM184 670v104q0 12 8 19.5t19 7.5q12 0 19.5 -7.5t7.5 -19.5v-98q1 0 4.5 1t5.5 1h104q10 0 18.5 -9t8.5 -18q0 -12 -8 -19t-19 -7h-104q-24 0 -27 20q-4 -2 -10 -2q-11 0 -19 8.5t-8 18.5z M184 881v104q0 12 8 19.5t19 7.5q12 0 19.5 -7.5t7.5 -19.5v-104q0 -11 -7.5 -19t-19.5 -8q-11 0 -19 8t-8 19zM184 1092v104q0 12 8 19.5t19 7.5q12 0 19.5 -7.5t7.5 -19.5v-104q0 -11 -7.5 -19t-19.5 -8q-11 0 -19 8.5t-8 18.5zM184 1303v104q0 23 25 27h4h106 q11 0 18 -7.5t7 -19.5q0 -10 -7.5 -18.5t-17.5 -8.5h-81v-77q0 -11 -7.5 -19t-19.5 -8q-11 0 -19 8t-8 19zM397 1407q0 11 8.5 19t18.5 8h106q11 0 18 -7.5t7 -19.5q0 -10 -7.5 -18.5t-17.5 -8.5h-106q-9 0 -18 9t-9 18zM432 651q0 10 8 18.5t19 8.5h104q10 0 18.5 -9 t8.5 -18q0 -12 -8 -19t-19 -7h-104q-27 0 -27 26zM608 1407q0 11 8.5 19t18.5 8h2q49 0 108 -17q12 -1 18 -11.5t1 -19.5q-4 -18 -23 -18h-8q-47 12 -96 12h-2q-9 0 -18 9t-9 18zM610 655q3 11 12 17.5t21 5.5q4 -2 12 -4q8 4 11 4q50 3 96 22q9 3 20 -1t15 -13 q3 -10 -2.5 -21t-14.5 -14q-23 -9 -26 -10q16 -13 10 -29q-6 -18 -27 -18q-1 0 -3.5 1t-4.5 1q-53 18 -70 22l-26 7q-11 2 -17.5 11t-5.5 19zM809 586q6 9 18 11t19 -3q51 -29 86 -76q14 -18 -2 -37q-8 -4 -19 -4q-15 0 -20 8q-27 36 -74 64q-13 13 -13 24q0 7 5 13z M810 1349q0 9 5 17q3 8 15 10q2 0 5 1q9 0 17 -5q49 -29 84 -69q8 -7 8 -18t-8 -19q-9 -9 -18 -9q-14 0 -19 11q-43 43 -78 61q-11 5 -11 20zM844 709q-7 10 -7 18q0 10 11 18q18 13 70 70q6 9 17 10t19 -6q17 -14 4 -37q-34 -43 -77 -77q-11 -7 -17 -7q-9 0 -20 11z M944 422q4 10 12 16q25 8 35 -14q22 -65 27 -111q0 -24 -27 -28q-26 0 -26 26q-2 42 -21 92q-2 5 -2 10q0 4 2 9zM952 1206q4 11 13 15q5 4 11 4q4 0 8 -2q10 -4 15 -13q25 -48 37 -108q1 -10 -5 -18.5t-17 -10.5h-4q-24 0 -27 21q-8 41 -29 92q-4 6 -4 12zM965 901 q19 46 22 94q0 10 9.5 17.5t21.5 7.5q9 -1 15.5 -10.5t6.5 -18.5q-6 -61 -26 -110q-7 -17 -23 -17q-8 0 -10 2q-11 6 -15 16q-2 6 -3 10q0 5 2 9zM967 203q0 12 7 20t17 8q3 1 6 1q7 0 13 -5q8 -7 10 -18q2 -39 16 -98q3 -9 -2 -19.5t-14 -15.5h-8q-16 0 -27 18 q-16 57 -18 109zM1049 29q1 12 10 19q7 5 14 5h4h6q3 1 6 1l14 -4q10 -4 11 -13q3 -7 3 -12q0 -15 -17 -23q-1 0 -7 -1t-12 -1h-8q-10 1 -17 10t-7 19z" />
<glyph unicode="S" horiz-adv-x="1366" d="M136 227q0 8 5 15q14 17 33 2l30 -22.5t42 -28.5q8 -6 10 -15.5t-4 -17.5q-7 -10 -21 -10q-4 0 -12 4q-25 17 -74 55q-9 7 -9 18zM184 1071q-1 9 5.5 16t15.5 9q9 0 16.5 -6t7.5 -15q6 -49 25 -82q5 -7 2 -16.5t-12 -13.5q-4 -2 -11 -2q-13 0 -22 12q-24 51 -27 98z M195 1171q9 36 43 91q15 19 32 6q8 -6 10 -15.5t-4 -17.5q-29 -46 -36 -76q-7 -18 -23 -18q-6 0 -8 2q-16 5 -16 18q0 5 2 10zM272 926q7 7 17 7.5t16 -5.5q36 -32 72 -51q21 -11 10 -33q-10 -13 -20 -13q-3 0 -13 5q-48 25 -80 57q-9 7 -9 16q0 8 7 17zM291 118q-1 3 -1 6 q0 6 3 11q4 9 14 12t17 -2q68 -35 82 -41q9 -3 12.5 -12t-0.5 -18q-8 -15 -21 -15q-2 0 -5 1t-5 1q-73 35 -86 43q-8 5 -10 14zM305 1335q35 28 82 54q9 5 19 1.5t14 -12.5q5 -7 2 -16.5t-12 -13.5q-30 -16 -74 -50q-6 -6 -14 -6q-12 0 -19 11q-5 5 -5 13q0 12 7 19z M428 823q11 22 31 15q61 -22 86 -29q9 -3 14 -11.5t2 -17.5q-4 -18 -22 -18q-5 0 -7 2q-40 10 -90 31q-9 3 -13 11q-2 5 -2 10q0 4 1 7zM463 59q7 21 29 17q45 -15 88 -21q9 -2 15 -9.5t5 -16.5q-4 -21 -25 -21h-2q-58 11 -94 23q-9 1 -14 10q-3 6 -3 11q0 4 1 7zM463 1397 q-2 5 -2 10q0 13 16 18q56 18 96 23q9 2 17.5 -4.5t9.5 -16.5q1 -9 -5 -16.5t-15 -9.5q-36 -5 -88 -19q-2 -2 -7 -2q-15 0 -22 17zM606 768q3 9 11.5 14.5t17.5 3.5q26 -4 37 -8h4q8 -2 25 -5t26 -5q9 -1 14.5 -9.5t3.5 -17.5q-7 -20 -24 -20q-2 2 -4 2q-18 2 -49 10h-4 q-30 5 -39 8q-9 1 -15 9q-4 6 -4 14v4zM645 25q0 9 8 15.5t17 6.5h2q44 0 88 6q9 1 16.5 -5t9.5 -15q1 -9 -5 -17t-15 -10q-46 -6 -94 -6h-2q-10 0 -17.5 8t-7.5 17zM645 1432q0 9 8 15.5t17 6.5q55 0 96 -8q10 -1 16 -9.5t4 -17.5q-3 -20 -24 -20q-2 2 -4 2q-44 6 -88 6 q-9 2 -17 9t-8 16zM791 729q1 9 10 14t18 2q79 -26 90 -30q9 -3 13.5 -12.5t1.5 -18.5q-7 -14 -23 -14q-6 0 -8 2q-52 19 -86 28q-9 4 -14 12q-3 5 -3 10q0 4 1 7zM831 43q-1 3 -1 6q0 5 4 11q6 8 14 12q44 12 84 30q9 4 18.5 1t12.5 -11q4 -9 0.5 -18.5t-11.5 -12.5 q-49 -23 -92 -34h-6q-17 0 -23 16zM831 1407q5 16 19 16q5 0 10 -2q40 -13 90 -37q8 -5 11.5 -14t-0.5 -18q-7 -13 -21 -13q-8 0 -12 2q-50 26 -82 37q-10 4 -14 12q-3 5 -2 10q0 3 1 7zM965 649q-1 3 -1 6q0 6 3 11q4 9 13.5 12t16.5 -2q37 -19 82 -55q8 -6 9 -15.5 t-5 -17.5q-12 -8 -18 -8q-8 0 -14 6q-49 34 -76 49q-8 5 -10 14zM998 1312q-1 3 -1 6q0 6 4 11q4 9 14 11q3 1 5 1q7 0 12 -4q2 -1 80 -51q9 -4 11 -14t-3 -17q-9 -12 -20 -12q-5 0 -13 4q-14 8 -39 25.5t-38 25.5q-9 5 -12 14zM1004 115q-5 7 -5 13q0 10 11 19q41 30 65 60 q14 17 33 2q7 -6 7.5 -16.5t-5.5 -16.5q-37 -41 -74 -65q-7 -7 -14 -7q-11 0 -18 11zM1108 522q-4 7 -4 14q0 10 10 19q9 4 16 4q11 0 17 -10q29 -42 41 -92q3 -10 -2.5 -18.5t-14.5 -10.5h-6q-19 0 -22 16q-7 34 -35 78zM1122 279q22 43 25 81q2 10 10 16q7 6 15 5h2 q9 -2 15 -10q5 -7 6 -14q0 -34 -30 -99q-6 -12 -20 -12q-8 0 -10 2q-9 2 -13 12q-2 5 -1 11q0 4 1 8z" />
<glyph unicode="T" horiz-adv-x="1327" d="M102 1407q0 12 7.5 19.5t19.5 7.5h107q10 0 18 -8t8 -19q0 -9 -8.5 -18t-17.5 -9h-107q-11 0 -19 8.5t-8 18.5zM315 1407q0 12 7.5 19.5t19.5 7.5h107q9 0 16.5 -7.5t7.5 -19.5q0 -9 -7.5 -18t-16.5 -9h-107q-11 0 -19 8.5t-8 18.5zM526 1407q0 12 8 19.5t19 7.5h22h5h79 q11 0 19 -7.5t8 -19.5q0 -9 -8.5 -18t-18.5 -9h-57v-80q0 -11 -8.5 -18.5t-18.5 -7.5q-26 0 -26 26v80q-9 1 -16 9.5t-7 17.5zM549 27v106q0 10 7.5 18.5t18.5 8.5q9 0 18 -9t9 -18v-106q0 -11 -8.5 -19t-18.5 -8q-26 0 -26 27zM549 240v106q0 10 7.5 17.5t18.5 7.5 q9 0 18 -8t9 -17v-106q0 -11 -8.5 -19t-18.5 -8q-26 0 -26 27zM549 451v106q0 11 7 19t19 8q9 0 18 -8.5t9 -18.5v-106q0 -10 -9 -18.5t-18 -8.5q-12 0 -19 8t-7 19zM549 664v106q0 10 7.5 18.5t18.5 8.5q9 0 18 -9t9 -18v-106q0 -11 -8.5 -19t-18.5 -8q-26 0 -26 27z M549 877v106q0 10 7.5 18.5t18.5 8.5q9 0 18 -9t9 -18v-106q0 -11 -8.5 -19t-18.5 -8q-26 0 -26 27zM549 1087v107q0 11 7 19t19 8q9 0 18 -8.5t9 -18.5v-107q0 -10 -8.5 -17t-18.5 -7q-26 0 -26 24zM739 1407q0 12 7.5 19.5t19.5 7.5h106q10 0 18.5 -8t8.5 -19q0 -9 -9 -18 t-18 -9h-106q-11 0 -19 8.5t-8 18.5zM952 1407q0 12 7.5 19.5t19.5 7.5h106q10 0 18.5 -8t8.5 -19q0 -9 -9 -18t-18 -9h-106q-11 0 -19 8.5t-8 18.5z" />
<glyph unicode="U" horiz-adv-x="1667" d="M215 573v39q0 11 7.5 19t19.5 8q9 0 16.5 -8.5t7.5 -18.5v-39q0 -41 4 -61q2 -12 -5 -20.5t-19 -8.5h-2q-20 0 -27 23q-2 20 -2 67zM215 717v104q0 9 7.5 17t19.5 8q9 0 16.5 -8t7.5 -17v-104q0 -12 -7.5 -19.5t-16.5 -7.5q-12 0 -19.5 7.5t-7.5 19.5zM215 924v104 q0 11 7.5 19t19.5 8q9 0 16.5 -8.5t7.5 -18.5v-104q0 -10 -7.5 -17.5t-16.5 -7.5q-12 0 -19.5 7t-7.5 18zM215 1133v104q0 9 7.5 17t19.5 8q9 0 16.5 -8t7.5 -17v-104q0 -12 -7.5 -19.5t-16.5 -7.5q-12 0 -19.5 7.5t-7.5 19.5zM215 1339v68q0 12 7.5 19.5t19.5 7.5 q9 0 16.5 -7.5t7.5 -19.5v-68q0 -10 -7.5 -17t-16.5 -7q-12 0 -19.5 6.5t-7.5 17.5zM242 399q-1 4 -1 9q1 6 3 12q4 10 16 12q9 3 19.5 -2t11.5 -14q17 -53 39 -90q12 -21 -11 -37q-4 -4 -14 -4q-13 0 -20 14q-28 49 -43 100zM344 211q-5 8 -5 16q0 10 9 19q9 6 20 5t15 -9 q44 -48 72 -70q9 -6 10 -18t-6 -19q-5 -8 -21 -8q-12 0 -18 6q-33 28 -76 78zM500 106q6 9 17 12.5t20 -1.5q48 -26 92 -39q9 -3 13.5 -13.5t0.5 -19.5q-3 -18 -25 -18q-6 0 -8 2q-54 15 -98 41q-16 9 -16 22q0 7 4 14zM692 33q7 25 33 22q20 -4 63 -4h35q9 0 17 -6.5 t8 -15.5q3 -11 -5 -20t-18 -9h-37q-48 0 -71 2q-25 7 -25 31zM901 37q-1 3 -1 5q0 7 4 15q6 10 16 11q52 13 92 32q24 10 35 -12q6 -9 2 -19.5t-13 -13.5q-60 -28 -104 -37q-2 -2 -6 -2q-22 0 -25 21zM1098 152q52 38 73 67q17 17 35 0q19 -22 4 -37q-53 -53 -82 -73 q-10 -5 -14 -5q-16 0 -20 11q-6 8 -6 17q0 13 10 20zM1231 297q24 33 47 88q3 9 12.5 12.5t20.5 -0.5q22 -11 12 -32q-20 -58 -49 -97q-7 -14 -21 -14q-6 0 -12 6q-15 10 -15 22q0 7 5 15zM1311 573v5q0 10 7.5 17t18.5 7t19 -7t8 -17v-5q0 -36 -8 -102q-7 -25 -27 -25l-6 3 q-20 7 -20 24zM1311 680v104q0 12 7.5 19.5t18.5 7.5t19 -7.5t8 -19.5v-104q0 -9 -8.5 -17t-18.5 -8t-18 8t-8 17zM1311 889v102q0 12 7.5 19.5t18.5 7.5t19 -7.5t8 -19.5v-102q0 -11 -8 -19t-19 -8q-10 0 -18 8t-8 19zM1311 1096v104q0 11 8 19t18 8q11 0 19 -8.5t8 -18.5 v-104q0 -9 -8.5 -18t-18.5 -9t-18 9t-8 18zM1311 1305v102q0 12 7.5 19.5t18.5 7.5t19 -7.5t8 -19.5v-102q0 -11 -8 -19t-19 -8q-10 0 -18 8t-8 19z" />
<glyph unicode="V" horiz-adv-x="1536" d="M120 1414q4 10 13 13q5 3 10 3q3 0 9 -2q10 -4 14 -13l43 -96q3 -10 -0.5 -20t-13.5 -13q-4 -2 -11 -2q-18 0 -22 14l-41 97q-3 5 -3 10t2 9zM201 1202q-3 7 -3 13q0 14 15 24q9 4 19.5 -0.5t15.5 -15.5l41 -95q7 -25 -15 -34h-10q-19 0 -22 16zM280 1034q4 10 13 13 q23 9 37 -13l39 -96q4 -9 0 -19.5t-13 -13.5q-6 -2 -10 -2q-18 0 -24 15l-41 96q-3 5 -3 10t2 10zM360 821q-2 6 -2 11q0 16 17 24q26 7 35 -14l39 -94q10 -23 -13 -35q-6 -2 -10 -2q-20 0 -23 14zM440 631q-1 4 -1 8q1 6 3 12q4 10 15 13q18 12 35 -13l38 -96 q8 -25 -14 -35q-1 0 -5 -1t-5 -1q-7 0 -14 5.5t-9 11.5zM522 440q-2 5 -2 9q0 5 2 11q4 10 15 15q10 3 19.5 -2t14.5 -14l39 -97q7 -20 -14 -32h-10q-20 0 -23 14zM602 250q-2 4 -2 9t2 9q4 10 16 15q9 4 18.5 0t14.5 -13l39 -96q10 -24 -12 -35q-4 -2 -10 -2q-8 0 -16 5 t-9 12zM682 57q-1 4 -1 7q1 6 3 12q4 10 14 14q13 6 27 -4q12 12 27 4q10 -3 15.5 -13.5t0.5 -19.5l-16 -37q-3 -13 -17 -20h-18q-4 2 -8 6q-2 0 -2 2q-1 1 -3 2q-1 0 -1.5 0.5t-0.5 1.5q-2 2 -2 4zM760 174l39 96q12 23 35 13q9 -5 13.5 -14.5t0.5 -18.5l-41 -96 q-1 -7 -8 -12t-15 -5t-10 2q-16 7 -16 23q0 6 2 12zM840 362l39 97q5 9 15 14t19 2q25 -11 15 -35l-41 -96q-3 -14 -23 -14h-10q-16 8 -16 22q0 4 2 10zM922 536q-2 5 -2 9q0 5 2 10l39 96q5 10 14 14t18 -1q11 -3 15.5 -13t1.5 -20l-43 -96q-2 -6 -9 -11.5t-14 -5.5 q-1 0 -5 1t-5 1q-8 6 -12 16zM1001 748l39 94q12 20 37 14q20 -10 13 -35l-41 -96q-6 -14 -25 -14q-4 0 -10 2q-16 8 -16 22q0 6 3 13zM1081 938l41 96q5 9 15.5 13t19.5 0q9 -3 13 -13.5t-1 -19.5l-41 -96q-3 -15 -22 -15q-6 0 -12 2q-8 3 -12 13q-2 6 -2 11t1 9z M1161 1128l43 95q3 10 13.5 15.5t19.5 0.5q21 -14 12 -33l-41 -96q-3 -16 -22 -16h-10q-17 7 -17 23q0 5 2 11zM1242 1300q-2 5 -2 9q0 5 3 10l41 96q4 9 14 13q5 2 9 2q5 0 10 -3q9 -3 13 -13q2 -5 2 -10t-1 -9l-39 -97q-10 -14 -26 -14q-7 0 -11 2q-9 4 -13 14z" />
<glyph unicode="W" horiz-adv-x="2256" d="M129 1395q-2 4 -2 9q1 5 3 10q4 10 13 13q5 2 10 2q5 1 9 -1q10 -4 16 -13l39 -96q3 -10 -0.5 -20t-13.5 -13q-2 -2 -10 -2q-16 0 -23 14zM209 1202q-2 6 -2 11q0 15 16 26q10 4 20 -0.5t15 -15.5l39 -95q6 -11 1.5 -20t-15.5 -14h-11q-12 0 -22 16zM289 1014q-2 4 -2 9 q1 5 3 11q6 10 15 13q9 4 19.5 0t13.5 -13l39 -96q6 -9 1.5 -19.5t-13.5 -13.5q-4 -2 -11 -2q-15 0 -24 15zM372 842q4 10 13 14q10 3 20 -0.5t13 -13.5l39 -94q5 -11 1 -20.5t-14 -14.5q-2 -2 -10 -2q-16 0 -22 14l-39 96q-3 6 -3 12q1 5 2 9zM452 650q4 10 13 14 q9 5 19.5 1t15.5 -14l41 -96q3 -9 -2 -20t-15 -15l-3 -1q-3 -1 -7 -1q-14 0 -22 17l-39 96q-3 5 -3 11q0 4 2 8zM532 440q-3 7 -3 13q0 14 16 22q10 3 20 -2t15 -14l41 -97q9 -17 -17 -32h-10q-15 0 -23 14zM612 250q-2 6 -2 11q0 15 17 22q20 10 32 -13l41 -96 q4 -10 -0.5 -20t-13.5 -15q-4 -2 -10 -2q-15 0 -25 17zM692 57q-1 4 -1 9q0 6 2 11q4 10 14 13q12 6 26 -4l2 4q3 10 13 13.5t20 0.5q21 -9 14 -34l-22 -50q-3 -12 -15 -20h-10h-4h-6q-13 5 -16 18zM774 186l41 97q5 9 14.5 12.5t18.5 -0.5q10 -3 13.5 -13t0.5 -20l-39 -96 q-10 -16 -26 -16q-5 0 -9 4q-10 3 -14 13q-2 5 -2 10t2 9zM854 379l41 92q5 11 15 15.5t20 0.5q22 -11 12 -32l-39 -97q-10 -16 -22 -16h-11q-18 10 -18 25q0 6 2 12zM934 567l41 97q5 9 15.5 13.5t19.5 -1.5q9 -3 13 -13.5t-1 -19.5l-39 -96q-9 -17 -22 -17q-3 0 -7 2l-4 3 q-10 3 -14 13q-3 6 -3 12q0 3 1 7zM1014 760l43 96q3 9 13.5 13t19.5 -1q9 -3 13.5 -13t-1.5 -19l-39 -97q-6 -16 -23 -16q-8 0 -10 2q-9 5 -14 15q-3 7 -3 13q0 4 1 7zM1096 932q-2 5 -2 10t2 10l41 95q3 9 12 13t18 1q19 0 25 -14l41 -95q7 -24 -16 -34q-3 -3 -11 -3 q-16 0 -22 15l-21 47l-18 -47q-9 -15 -25 -15q-4 0 -10 3q-10 4 -14 14zM1224 855q4 10 13 13q24 10 35 -12l41 -96q4 -9 -1 -19.5t-16 -15.5q-2 -2 -10 -2q-16 0 -22 16l-39 97q-3 5 -3 11q0 4 2 8zM1305 643q-1 5 -1 9q0 5 2 11q4 10 13 13q9 5 18.5 1.5t14.5 -13.5 l41 -97q4 -9 -1 -19t-14 -13q-2 0 -5 -2.5t-5 -2.5q-12 0 -25 17zM1384 455q-2 5 -2 10q0 14 17 22q9 5 19.5 -0.5t13.5 -15.5l41 -92q8 -22 -15 -37h-10q-15 0 -25 16zM1466 262q-2 4 -2 9t2 11q4 10 13 13q9 4 19 0.5t13 -12.5l43 -97q3 -9 -2 -19t-14 -13q-2 -4 -8 -4 q-19 0 -25 16zM1546 70q-2 6 -2 11t2 9q4 9 13 14q25 7 34 -14v-4q14 10 29 4q9 -3 13 -13.5t-1 -19.5l-16 -37q-3 -13 -14 -20h-21q-13 5 -16 18zM1626 174l41 96q5 9 15.5 13t19.5 0q9 -5 12.5 -14.5t-0.5 -18.5l-39 -96q-7 -17 -22 -17q-9 0 -11 2q-18 8 -18 24q0 5 2 11 zM1706 362l43 97q3 9 13.5 14t19.5 2q10 -5 13.5 -14.5t-1.5 -20.5l-39 -96q-6 -14 -22 -14h-11q-17 12 -17 25q0 3 1 7zM1788 555l41 96q3 9 13.5 14t19.5 -1q10 -3 14.5 -13.5t-0.5 -19.5l-39 -96q-13 -17 -25 -17q-2 0 -5 1t-5 1q-10 6 -14 16q-2 6 -2 10q0 5 2 9z M1868 728q-1 4 -1 8q0 6 3 12l39 94q9 21 35 14q10 -5 13.5 -14.5t-1.5 -20.5l-39 -96q-8 -14 -23 -14q-8 0 -12 2q-10 5 -14 15zM1950 918q-2 5 -3 10q0 5 3 10l39 96q5 9 15 13t19 0q9 -3 14 -13.5t1 -19.5l-41 -96q-6 -15 -23 -15q-8 0 -10 2q-10 3 -14 13zM2032 1128 l39 95q3 10 13 15.5t19 0.5q23 -15 17 -37l-43 -92q-6 -16 -23 -16h-10q-16 8 -16 20q0 7 4 14zM2111 1300q-2 5 -2 9.5t2 9.5l39 96q4 9 14 13q5 2 9 2q5 0 10 -3q10 -3 15 -13q3 -6 3 -12q0 -4 -1 -7l-41 -97q-11 -14 -25 -14q-8 0 -10 2q-9 4 -13 14z" />
<glyph unicode="X" horiz-adv-x="1478" d="M154 25q0 8 6 16l59 84q6 7 18 8.5t19 -4.5q9 -6 10 -16.5t-6 -18.5l-59 -84q-5 -10 -21 -10q-10 0 -14 6q-12 5 -12 19zM160 1389q-7 10 -7 18q0 11 13 18q7 6 15 6q10 0 20 -10l28 -43q8 -7 6.5 -19t-10.5 -16q-9 -6 -16 -6q-5 0 -21 11zM256 1300q7 6 19 4.5t18 -8.5 l59 -84q8 -9 6 -19.5t-12 -14.5q-2 -7 -14 -7q-15 0 -23 11l-59 84q-5 7 -5 15q0 13 11 19zM278 193q0 9 5 14l59 84q16 19 35 8q10 -7 12 -18.5t-4 -18.5l-61 -86q-15 -10 -21 -10q-7 0 -16 6q-9 5 -9 21zM373 1100q-6 7 -6 15q0 10 10 20q23 13 37 -7l61 -84 q6 -7 4.5 -18.5t-10.5 -17.5q-8 -4 -14 -4q-14 0 -21 10zM403 377l62 82q6 7 17 9t20 -3q7 -6 9 -17t-3 -20l-64 -84q-7 -10 -20 -10q-10 0 -14 6q-12 9 -12 21q0 7 5 16zM491 949q2 12 9 18q9 6 20 5t17 -9l61 -86q6 -7 4 -18.5t-10 -18.5q-4 -2 -14 -2q-16 0 -21 10 l-63 82q-4 5 -4 13q0 3 1 6zM526 543l62 84q15 19 37 6q7 -6 8 -18t-4 -19l-62 -86q-15 -10 -20 -10q-3 0 -5.5 1t-6 2.5t-5.5 2.5q-10 10 -10 20q0 8 6 17zM612 782q2 11 13 17q7 8 16.5 6t15.5 -12l25 -35l27 35q6 10 17.5 12t18.5 -6q18 -15 7 -37l-35 -49l2 -2 q6 -9 5 -20t-9 -17q-12 -4 -17 -4q-10 0 -14 2q-6 -2 -16 -2q-9 0 -13 4q-9 6 -11.5 17t3.5 20l4 4l-35 47q-4 6 -4 14q-1 3 0 6zM745 633q8 6 18.5 4t18.5 -10l60 -84q17 -21 -6 -37q-12 -6 -15 -6q-10 0 -20 10l-60 86q-7 6 -7 15q0 15 11 22zM766 861q0 9 6 16l59 86 q6 7 18 8.5t19 -4.5q9 -6 10.5 -18t-6.5 -19l-59 -82q-5 -10 -20 -10q-11 0 -17 2q-10 9 -10 21zM868 465q7 5 19 3t16 -9l64 -82q13 -22 -9 -37q-2 -6 -16 -6q-10 0 -20 10l-60 84q-6 7 -6 16q0 14 12 21zM889 1025q-1 3 -1 5q0 8 5 14l59 84q7 9 18.5 11t18.5 -4 q22 -18 8 -35l-61 -86q-10 -10 -23 -10q-6 0 -14 4q-8 6 -10 17zM989 299q9 5 20 3t17 -11l61 -84q6 -7 4.5 -19t-8.5 -16q-9 -6 -16 -6q-5 0 -20 10l-62 86q-5 7 -5 16q0 12 9 21zM1011 1196q0 8 5 16l61 84q6 8 17 9t20 -5q8 -5 9 -15t-5 -19l-61 -84q-5 -11 -21 -11 q-9 0 -16 7q-9 6 -9 18zM1102 112q2 10 10 17q9 6 19.5 5t15.5 -9l63 -84q4 -7 5 -14q0 -3 -1 -5q-2 -10 -10 -16q-4 -6 -14 -6q-16 0 -23 10l-61 84q-4 6 -4 13v5zM1133 1359q-1 3 -1 5q0 8 5 14l30 43q6 8 17 9h3q9 0 17 -5q11 -9 10 -20q0 -7 -4 -16l-30 -41 q-16 -11 -23 -11q-8 0 -14 6q-8 5 -10 16z" />
<glyph unicode="Y" horiz-adv-x="1236" d="M121 1389q-7 10 -7 18q0 11 13 18q7 6 15 6q10 0 20 -10l14 -20q7 -9 5 -20t-11 -17q-6 -6 -14 -6t-23 10zM201 1323q24 10 37 -6l61 -86q6 -8 5 -17.5t-9 -15.5q-6 -6 -16 -6q-11 0 -21 10l-61 84q-5 6 -5 14q0 15 9 23zM317 1118q-5 7 -5 15q0 10 12 20q9 7 19.5 6 t16.5 -10l62 -84q6 -9 4 -19.5t-10 -15.5q-6 -6 -15 -6q-15 0 -20 10zM436 970q3 11 13 17q17 13 34 -4l60 -86q6 -8 5 -18.5t-9 -18.5q-12 -4 -17 -4q-11 0 -20 12l-62 84q-4 5 -4 12v6zM565 782q-9 10 -9 18q0 11 13 19q7 6 18.5 4.5t18.5 -10.5l43 -61l45 61q16 20 37 6 t4 -37l-59 -82v-79q0 -12 -7.5 -19.5t-19.5 -7.5q-11 0 -17.5 7.5t-6.5 19.5v79zM625 27v73q0 11 7 19t17 8q12 0 19.5 -8t7.5 -19v-73q0 -12 -7.5 -19.5t-19.5 -7.5q-11 0 -17.5 7.5t-6.5 19.5zM625 205v104q0 9 7 17t17 8q11 0 19 -8t8 -17v-104q0 -12 -7.5 -19.5 t-19.5 -7.5q-11 0 -17.5 7.5t-6.5 19.5zM625 412v104q0 10 7 18.5t17 8.5q11 0 19 -8.5t8 -18.5v-104q0 -11 -7.5 -18t-19.5 -7q-10 0 -17 7t-7 18zM752 878v6q0 7 4 13l59 86q8 8 18.5 9t18.5 -5q9 -6 11.5 -16.5t-3.5 -18.5l-63 -84q-6 -12 -21 -12q-6 0 -14 4 q-8 8 -10 18zM874 1048q0 9 5 17l61 84q14 21 37 4q18 -14 4 -35l-61 -84q-8 -10 -21 -10q-7 0 -16 6t-9 18zM999 1231l64 86q4 7 15 9t20 -3q8 -6 10 -17.5t-4 -19.5l-64 -84q-7 -10 -20 -10q-10 0 -14 6q-12 10 -12 20q0 6 5 13zM1117 1385q0 9 5 16l15 20q8 8 19 9h2 q9 0 16 -5q12 -8 12 -19q0 -8 -6 -17l-15 -21q-10 -10 -20 -10q-5 0 -17 6q-11 7 -11 21z" />
<glyph unicode="Z" horiz-adv-x="1366" d="M150 25q0 8 6 16l59 84q6 7 18 8.5t19 -4.5q9 -6 10 -16.5t-6 -18.5l-59 -84q-5 -10 -21 -10q-10 0 -14 6q-12 5 -12 19zM225 27q0 9 7.5 16.5t19.5 7.5h104q9 0 17 -7.5t8 -16.5q0 -11 -7.5 -19t-17.5 -8h-104q-12 0 -19.5 7.5t-7.5 19.5zM225 1405q0 12 7.5 19.5 t19.5 7.5h104q10 0 17.5 -8t7.5 -19q0 -9 -8 -18t-17 -9h-104q-11 0 -19 8.5t-8 18.5zM273 190q0 11 6 17l59 84q16 19 35 8q10 -7 12 -18.5t-4 -18.5l-62 -86q-15 -10 -20 -10q-7 0 -16 6q-10 4 -10 18zM399 377l62 82q6 7 17 9t20 -3q7 -6 9 -17t-3 -20l-64 -84 q-7 -10 -20 -10q-10 0 -14 6q-12 9 -12 21q0 7 5 16zM434 27q0 9 7.5 16.5t17.5 7.5h104q9 0 17 -7.5t8 -16.5q0 -11 -8 -19t-17 -8h-104q-11 0 -18 7.5t-7 19.5zM434 1405q0 12 7 19.5t18 7.5h104q9 0 17 -8t8 -19q0 -9 -8 -18t-17 -9h-104q-10 0 -17.5 8.5t-7.5 18.5z M522 543l62 84q15 19 37 6q7 -6 8 -18t-4 -19l-62 -86q-15 -10 -20 -10q-3 0 -5.5 1t-6 2.5t-5.5 2.5q-10 10 -10 20q0 8 6 17zM640 691q-1 3 -1 6q0 7 4 14l62 82q6 10 17.5 12t18.5 -6q18 -15 7 -37l-60 -82q-8 -10 -24 -10q-9 0 -13 4q-9 6 -11 17zM641 27q0 9 7.5 16.5 t17.5 7.5h104q9 0 18 -7.5t9 -16.5q0 -11 -8.5 -19t-18.5 -8h-104q-11 0 -18 7.5t-7 19.5zM641 1405q0 12 7 19.5t18 7.5h104q10 0 18.5 -8t8.5 -19q0 -9 -9 -18t-18 -9h-104q-10 0 -17.5 8.5t-7.5 18.5zM762 861q0 9 6 16l59 86q6 7 18 8.5t19 -4.5q9 -6 10.5 -18t-6.5 -19 l-59 -82q-5 -10 -21 -10q-10 0 -16 2q-10 9 -10 21zM848 27q0 9 7 16.5t19 7.5h103q10 0 18.5 -7.5t8.5 -16.5q0 -12 -8 -19.5t-19 -7.5h-103q-26 0 -26 27zM848 1405q0 27 26 27h103q11 0 19 -7.5t8 -19.5q0 -9 -8.5 -18t-18.5 -9h-103q-11 0 -18.5 8.5t-7.5 18.5z M885 1025q-1 3 -1 5q0 8 5 14l59 84q7 9 18.5 11t18.5 -4q22 -18 8 -35l-61 -86q-10 -10 -23 -10q-6 0 -14 4q-8 6 -10 17zM1007 1196q0 8 5 16l61 84q6 8 17 9t20 -5q8 -5 9 -15t-5 -19l-61 -84q-5 -11 -21 -11q-9 0 -16 7q-9 6 -9 18zM1055 27q0 9 7.5 16.5t18.5 7.5h105 q9 0 16.5 -7.5t7.5 -16.5q0 -12 -7.5 -19.5t-16.5 -7.5h-105q-26 0 -26 27zM1055 1405q0 27 26 27h105q8 0 15.5 -6.5t8.5 -16.5v-4v-4q0 -4 -4 -12l-30 -41q-16 -11 -23 -11q-8 0 -14 6q-19 19 -6 35h-52q-11 0 -18.5 8.5t-7.5 18.5z" />
<glyph unicode="[" horiz-adv-x="880" d="M201 -8q0 12 9 20t21 8t20.5 -8t8.5 -20v-119q0 -4 -2 -8h92q12 0 20.5 -8.5t8.5 -20.5t-8.5 -21.5t-20.5 -9.5h-119q-12 0 -21 9.5t-9 21.5q0 13 6 19q-6 9 -6 18v119zM201 111v118q0 12 9 20.5t21 8.5t20.5 -8.5t8.5 -20.5v-118q0 -12 -8.5 -21.5t-20.5 -9.5t-21 9.5 t-9 21.5zM201 348v117q0 12 9 21.5t21 9.5t20.5 -9.5t8.5 -21.5v-117q0 -12 -8.5 -21.5t-20.5 -9.5t-21 9.5t-9 21.5zM201 584v118q0 12 9 21.5t21 9.5t20.5 -9.5t8.5 -21.5v-118q0 -12 -8.5 -20.5t-20.5 -8.5t-21 8.5t-9 20.5zM201 821v119q0 12 9 21.5t21 9.5t20.5 -9.5 t8.5 -21.5v-119q0 -12 -8.5 -20t-20.5 -8t-21 8t-9 20zM201 1059v119q0 12 9 20t21 8t20.5 -8t8.5 -20v-119q0 -12 -8.5 -20.5t-20.5 -8.5t-21 8.5t-9 20.5zM201 1296v119q0 10 7.5 18.5t18.5 10.5h4h5h114q12 0 20.5 -8.5t8.5 -20.5t-8.5 -21.5t-20.5 -9.5h-90v-88 q0 -12 -8.5 -21t-20.5 -9t-21 9t-9 21zM438 -164q0 12 9.5 20.5t21.5 8.5h51q12 0 21.5 -8.5t9.5 -20.5t-9.5 -21.5t-21.5 -9.5h-51q-12 0 -21.5 9.5t-9.5 21.5zM438 1415q0 12 9.5 20.5t21.5 8.5h51q12 0 21.5 -8.5t9.5 -20.5t-9.5 -21.5t-21.5 -9.5h-51q-12 0 -21.5 9.5 t-9.5 21.5z" />
<glyph unicode="\" horiz-adv-x="917" d="M131 37l16 41q4 10 14.5 14t20.5 0q9 -3 14 -13.5t1 -19.5l-17 -43q-10 -16 -26 -16q-7 0 -9 2q-9 5 -13.5 15t-0.5 20zM190 174l39 94q3 11 13.5 16t19.5 1q22 -15 17 -37l-43 -92q-1 -7 -8 -13t-15 -6q-1 0 -5 1t-5 1q-23 12 -13 35zM270 345.5q-4 10.5 0 19.5l39 96 q3 9 13.5 13t19.5 -1q9 -3 14 -13.5t2 -19.5l-41 -96q-6 -16 -24 -16q-8 0 -10 4q-9 3 -13 13.5zM350 557l39 94q12 22 33 15q23 -9 16 -35l-41 -94q-6 -17 -24 -17q-7 0 -11 2q-22 11 -12 35zM430 748l39 94q15 22 37 14q9 -3 13 -13.5t-1 -19.5l-41 -96q-3 -16 -24 -16 h-11q-19 13 -12 37zM510 936l39 96q15 23 37 12q9 -3 12.5 -13t-0.5 -19l-41 -97q-5 -14 -22 -14q-2 0 -5.5 1t-5.5 1q-22 9 -14 33zM590 1128l43 97q3 9 13 12t20 0q9 -5 12.5 -14.5t-0.5 -18.5l-41 -96q-3 -16 -23 -16q-6 0 -10 2q-22 10 -14 34zM671.5 1300.5 q-3.5 9.5 0.5 18.5l41 96q3 9 13 12.5t19 -0.5q10 -3 14 -12.5t1 -19.5l-43 -97q-3 -14 -23 -14q-6 0 -10 2q-9 5 -12.5 14.5z" />
<glyph unicode="]" horiz-adv-x="880" d="M113 -164q0 12 9 20.5t21 8.5h52q12 0 21 -8.5t9 -20.5t-9 -21.5t-21 -9.5h-52q-12 0 -21 9.5t-9 21.5zM113 1415q0 12 9 20.5t21 8.5h52q12 0 21 -8.5t9 -20.5t-9 -21.5t-21 -9.5h-52q-12 0 -21 9.5t-9 21.5zM285 -164q0 12 8 20.5t20 8.5h93q-3 6 -3 8v119q0 12 8.5 20 t20.5 8t21.5 -8t9.5 -20v-119q0 -9 -6 -18q6 -6 6 -19q0 -12 -9.5 -21.5t-21.5 -9.5h-119q-12 0 -20 9.5t-8 21.5zM285 1415q0 12 8 20.5t20 8.5h115h4h4q11 -2 19 -10.5t8 -18.5v-119q0 -12 -9.5 -21t-21.5 -9t-20.5 9t-8.5 21v88h-90q-12 0 -20 9.5t-8 21.5zM403 111v118 q0 12 8.5 20.5t20.5 8.5t21.5 -8.5t9.5 -20.5v-118q0 -12 -9.5 -21.5t-21.5 -9.5t-20.5 9.5t-8.5 21.5zM403 348v117q0 12 8.5 21.5t20.5 9.5t21.5 -9.5t9.5 -21.5v-117q0 -12 -9.5 -21.5t-21.5 -9.5t-20.5 9.5t-8.5 21.5zM403 584v118q0 12 8.5 21.5t20.5 9.5t21.5 -9.5 t9.5 -21.5v-118q0 -12 -9.5 -20.5t-21.5 -8.5t-20.5 8.5t-8.5 20.5zM403 821v119q0 12 8.5 21.5t20.5 9.5t21.5 -9.5t9.5 -21.5v-119q0 -12 -9.5 -20t-21.5 -8t-20.5 8t-8.5 20zM403 1059v119q0 12 8.5 20t20.5 8t21.5 -8t9.5 -20v-119q0 -12 -9.5 -20.5t-21.5 -8.5 t-20.5 8.5t-8.5 20.5z" />
<glyph unicode="_" horiz-adv-x="1228" d="M-49 23q0 9 4.5 15.5t9.5 6.5h60q16 0 16 -22q0 -21 -16 -21h-60q-5 0 -9.5 6t-4.5 15zM70 23q0 9 4.5 15.5t9.5 6.5h59q17 0 17 -22q0 -21 -17 -21h-59q-5 0 -9.5 6t-4.5 15zM188 23q0 9 5 15.5t10 6.5h59q17 0 17 -22q0 -21 -17 -21h-59q-5 0 -10 6.5t-5 14.5z" />
<glyph unicode="a" horiz-adv-x="1267" d="M82 502v45q1 9 10.5 16.5t18.5 7.5q12 -1 18.5 -10t3.5 -18v-41q0 -40 4 -58q1 -9 -6 -17t-18 -11h-2q-20 0 -27 22q-2 20 -2 64zM102 653q11 40 41 101q13 19 37 12q17 -14 10 -39q-26 -50 -38 -90q-3 -16 -25 -16h-6q-9 3 -15 13q-4 8 -4 14v5zM109 334q-1 4 -1 8 q0 6 3 12q5 10 16 11q22 7 29 -17q12 -38 43 -86q10 -22 -9 -37q-6 -2 -14 -2q-14 0 -22 10q-33 64 -45 101zM205 842q30 35 82 76q9 5 20 2.5t15 -9.5q6 -9 4.5 -19t-9.5 -15q-19 -14 -73 -68q-5 -8 -17 -8q-14 0 -18 4q-9 10 -9 21q0 8 5 16zM219 147q-8 8 -8 17 q0 10 10 20q7 8 18 8t19 -8q21 -28 72 -65q23 -13 8 -35q-5 -12 -21 -12q-10 0 -16 6q-34 21 -82 69zM369 934q-4 7 -4 14q0 13 16 23q58 23 106 28q10 1 18.5 -5t10.5 -15q1 -12 -5 -20.5t-15 -10.5q-57 -10 -95 -26q-2 0 -5 -1t-5 -1q-13 0 -22 14zM385 59q3 9 13.5 14 t19.5 1q63 -17 94 -23q11 0 17.5 -8t5.5 -20q-8 -23 -27 -23h-2q-66 11 -107 27q-9 3 -13 13q-2 5 -3 10q0 4 2 9zM567 979q3 27 29 27q46 -8 106 -25q10 -3 15 -13.5t2 -19.5q-7 -18 -25 -18q-1 0 -4 2t-4 2q-62 16 -96 18q-9 0 -16 9t-7 18zM586 23v5q0 21 22 27 q37 2 94 23q9 4 19.5 -2t13.5 -15q4 -9 -1.5 -19t-14.5 -13q-49 -18 -105 -27h-2q-22 0 -26 21zM762 907v5q0 7 4 12q6 10 16.5 12.5t16.5 -2.5q46 -28 86 -68q7 -8 7 -19t-7 -18q-5 -8 -19 -8q-10 0 -18 8q-31 31 -74 62q-10 6 -12 16zM782 88q-8 6 -8 14q0 9 12 21 q41 28 74 63q17 17 39 2q7 -8 7 -18t-7 -18q-38 -44 -84 -72q-6 -6 -12 -6q-17 0 -21 14zM909 752q-6 8 -6 16q0 11 12 20q9 5 20 3t17 -11q5 -7 29 -49v41q0 12 7 19.5t18 7.5t18.5 -7.5t7.5 -19.5v-102q0 -11 -8 -19t-18 -8q-11 0 -17 6h-2h-10q-22 0 -25 15 q-32 71 -43 88zM920 266q29 60 38 88q1 8 9 13.5t16 5.5q9 12 23 12q11 0 18.5 -7.5t7.5 -19.5v-102q0 -11 -8 -19t-18 -8t-17.5 8t-7.5 19v18q-2 -4 -9 -15.5t-9 -18.5q-9 -13 -25 -13q-6 0 -12 2q-11 9 -11 20q0 8 5 17zM981 49v103q0 12 7 19t18 7t18.5 -7t7.5 -19v-103 q0 -9 -8 -17.5t-18 -8.5t-17.5 8.5t-7.5 17.5zM981 463v102q0 12 7 19.5t18 7.5t18.5 -7.5t7.5 -19.5v-102q0 -11 -8 -19t-18 -8t-17.5 8t-7.5 19zM981 877v102q0 12 7 19.5t18 7.5t18.5 -7.5t7.5 -19.5v-102q0 -11 -8 -19t-18 -8t-17.5 8t-7.5 19z" />
<glyph unicode="b" horiz-adv-x="1351" d="M190 57v105q0 10 8 17t19 7t18 -7t7 -17v-105q0 -9 -7.5 -17.5t-17.5 -8.5t-18.5 8.5t-8.5 17.5zM190 264v105q0 12 8 19t19 7t18 -7t7 -19v-39q2 2 4 2q9 4 19.5 0t13.5 -13q0 -7 6 -16q3 -10 -1 -20t-14 -13q-1 0 -4.5 -1t-5.5 -1q-12 0 -18 6v-10q0 -9 -7.5 -16.5 t-17.5 -7.5t-18.5 7.5t-8.5 16.5zM190 473v105q0 10 8 17t19 7t18 -7t7 -17v-105q0 -11 -7.5 -19t-17.5 -8q-11 0 -19 8t-8 19zM190 680v104q0 12 8 19.5t19 7.5t18 -7.5t7 -19.5v-67q14 30 45 69q6 10 15.5 12.5t16.5 -3.5q10 -7 12.5 -18.5t-3.5 -18.5q-32 -41 -49 -86 q-3 -15 -23 -15q-8 0 -10 2q-9 4 -10 7q-7 -11 -19 -11q-10 0 -18.5 8t-8.5 17zM190 889v102q0 12 8 19.5t19 7.5t18 -7.5t7 -19.5v-102q0 -11 -7.5 -19t-17.5 -8q-11 0 -19 8t-8 19zM190 1096v104q0 10 8 18.5t19 8.5q10 0 17.5 -8t7.5 -19v-104q0 -10 -7.5 -18.5 t-17.5 -8.5t-18.5 9t-8.5 18zM190 1305v102q0 12 8 19.5t19 7.5t18 -7.5t7 -19.5v-102q0 -11 -7.5 -19t-17.5 -8q-11 0 -19 8t-8 19zM288 209q2 12 9 16q9 6 20 5t17 -9q28 -38 67 -69q18 -21 2 -37q-8 -11 -18 -11q-3 0 -18 5q-45 45 -76 81q-4 5 -4 13q0 3 1 6zM356 834 q-8 8 -8 17t10 19q40 34 91 62q20 14 34 -10q6 -9 3 -20t-13 -17q-40 -19 -80 -54q-8 -8 -18 -8q-11 0 -19 11zM449 86q11 18 34 10q43 -24 92 -35q9 -2 14.5 -11t4.5 -19q-7 -21 -27 -21q-2 0 -6 2q-49 11 -102 37q-13 11 -13 24q0 6 3 13zM532 940q-1 4 -1 8q-1 6 3 12 q6 8 17 11q56 16 106 16q12 0 20.5 -7t8.5 -17t-7.5 -18.5t-16.5 -8.5q-43 0 -97 -14h-8q-18 0 -25 18zM645 27q0 9 8.5 16.5t18.5 7.5q41 0 96 10q10 4 19 -1t12 -15t-3 -20t-16 -13q-70 -12 -108 -12q-11 0 -19 7.5t-8 19.5zM739 958q4 19 25 19h6q62 -15 100 -37 q10 -3 15 -13.5t0 -19.5q-12 -16 -25 -16q-1 0 -5 1t-5 1q-42 23 -94 35q-10 2 -16 10q-3 5 -3 11q0 4 2 9zM848 61q-3 7 -3 13q0 13 13 24q47 21 82 56q22 14 37 -7q14 -18 -2 -34q-45 -39 -90 -62q-6 -2 -15 -2q-14 0 -22 12zM922 862q0 10 6 17q6 9 18 9q1 0 2 1 q11 0 17 -6q41 -32 77 -78q6 -9 4 -20t-10 -17q-4 -4 -14 -4q-16 0 -21 8q-34 43 -71 70q-8 7 -8 20zM1002 204v5q0 8 4 14q33 44 49 86q6 9 17 13t20 0q21 -14 12 -37q-25 -54 -57 -92q-5 -11 -21 -11q-6 0 -14 4q-8 6 -10 18zM1050 708q4 11 13 17q6 2 12 2q15 0 25 -16 q23 -55 37 -103q1 -10 -5.5 -19t-17.5 -11h-4q-24 0 -27 20q-12 46 -30 90q-4 6 -4 12q0 4 1 8zM1085 403q13 63 13 91v4q-3 11 4.5 18.5t17.5 7.5q26 0 29 -26v-4q0 -20 -10 -103q-1 -8 -10 -14t-17 -6h-4q-26 7 -23 32z" />
<glyph unicode="c" horiz-adv-x="1169" d="M119 504q0 31 4 47q0 9 7 15.5t17 6.5q12 -1 18.5 -9t6.5 -17v-43v-58q0 -8 -6 -16.5t-14 -9.5h-5q-11 0 -17.5 7t-6.5 17q-4 16 -4 60zM143 657q5 17 45 99q12 17 37 10q8 -6 10 -17t-4 -20l-13.5 -27l-16.5 -33t-11 -28q-3 -18 -22 -18h-6q-20 7 -20 24q0 5 1 10z M147 338q-1 4 -1 8q0 6 2 12q4 10 16 11q8 3 18 -1.5t11 -15.5q22 -50 45 -86q5 -8 2 -18.5t-11 -16.5q-8 -4 -12 -4q-14 0 -24 13q-35 56 -46 98zM247 825q0 10 5 17q36 36 84 69q9 6 19.5 4t15.5 -8q6 -9 5 -20t-9 -17q-50 -37 -76 -63q-5 -8 -17 -8t-20 8q-7 4 -7 18z M254 172q0 10 6 18q8 8 19.5 8t17.5 -8q40 -40 78 -61q17 -14 4 -37q-3 -10 -21 -10q-10 0 -12 2q-46 32 -86 72q-6 6 -6 16zM418 930q-2 7 -2 12q0 15 14 23q10 3 32.5 10.5t39 11.5t33.5 6q11 3 20 -2.5t10 -17.5q0 -21 -20 -29q-36 -8 -92 -29h-13q-19 0 -22 15zM426 70 q3 9 13.5 13t19.5 -1q70 -23 96 -27q8 -2 13.5 -9t4.5 -17q0 -11 -7 -18t-17 -7q-1 0 -2 1t-2 1q-14 3 -105 29q-17 11 -17 24q0 5 3 11zM614 979q0 10 8.5 17.5t18.5 7.5q65 -4 109 -11q9 -3 15 -13t3 -19q-1 -9 -9 -15t-16 -6h-6q-21 5 -96 14q-11 0 -19 7.5t-8 17.5z M627 25q0 11 7 19.5t17 8.5q56 0 97 10q9 3 19 -2.5t11 -15.5q2 -9 -3.5 -18.5t-14.5 -12.5q-49 -14 -107 -14q-9 0 -17.5 7.5t-8.5 17.5zM817 944q12 15 24 15q7 0 13 -5q54 -23 92 -53q7 -4 8.5 -16t-4.5 -19q-5 -10 -20 -10q-7 0 -15 4q-56 37 -86 49q-15 8 -15 21 q0 6 3 14zM828 84q4 10 12 14q31 13 84 52q7 5 14 5l20 -10q6 -9 6 -17q0 -10 -10 -19q-40 -34 -94 -56q-2 -4 -10 -4q-18 0 -21 14q-3 6 -3 12q0 5 2 9z" />
<glyph unicode="d" horiz-adv-x="1351" d="M123 494v4q0 12 8 19t19 7q24 0 24 -26v-4q0 -19 10 -91q6 -25 -20 -32h-4q-24 0 -27 20q-10 83 -10 103zM135 608q12 50 37 103q9 21 35 14q10 -6 13.5 -17t-1.5 -20q-21 -50 -31 -90q-6 -20 -26 -20h-6q-10 1 -16 10q-5 7 -5 15v5zM168 285q-3 7 -3 13q0 14 15 24 q9 4 19.5 0t13.5 -13q13 -26 49 -86q9 -8 7 -19.5t-11 -17.5q-4 -4 -16 -4q-13 0 -21 11q-33 48 -53 92zM225 785q-1 3 -1 5q0 8 5 15q35 43 78 78q7 6 18.5 5.5t18.5 -9.5q7 -7 5.5 -18.5t-11.5 -18.5q-39 -34 -68 -70q-5 -8 -20 -8q-10 0 -14 4q-9 6 -11 17zM295 147 q16 22 35 7q37 -34 82 -56q22 -14 12 -37q-8 -12 -23 -12q-8 0 -14 2q-45 23 -90 62q-10 10 -10 18t8 16zM385 926q3 10 12 14q48 25 105 37q26 3 30 -19q7 -26 -18 -30q-51 -12 -92 -35q-1 0 -5 -1t-5 -1q-17 0 -25 16q-3 6 -3 12q0 3 1 7zM471 45q3 10 13 15t20 1 q48 -10 96 -10q10 0 18.5 -7.5t8.5 -16.5q0 -12 -8 -19.5t-19 -7.5q-38 0 -108 12q-22 5 -22 26q0 3 1 7zM586 963q0 10 7.5 17t16.5 7q55 0 111 -16q11 -2 16 -10.5t2 -20.5q-7 -18 -24 -18h-8q-54 14 -97 14q-10 0 -17 8t-7 19zM678 31q-1 3 -1 7q0 6 4 12q6 9 15 11 q54 14 92 35q9 3 20 0t15 -10q4 -9 0.5 -20t-12.5 -17q-49 -25 -100 -37q-4 -2 -9 -2q-17 0 -24 21zM786 902l-2 8q0 6 4 12q4 10 15 13t18 -3q48 -25 92 -62q19 -19 2 -36q-8 -11 -20 -11q-8 0 -16 8q-60 44 -80 54q-9 6 -13 17zM866 115q-7 8 -7 16q0 10 11 21 q41 33 68 69q6 8 17 9t20 -5q7 -4 8 -16t-4 -19q-27 -34 -74 -81q-15 -5 -18 -5q-15 0 -21 11zM948 795q24 14 37 -9q27 -39 45 -71v69q0 12 7 19.5t18 7.5t18.5 -7.5t7.5 -19.5v-104q0 -9 -8 -17t-18 -8q-14 0 -21 11q-2 -4 -8 -7q-4 -2 -10 -2q-20 0 -23 15q-19 44 -49 86 q-5 7 -5 16q0 12 9 21zM987 303q1 2 6 16q3 9 13.5 13t19.5 0q2 -2 4 -2v39q0 12 7 19t18 7t18.5 -7t7.5 -19v-105q0 -9 -8 -16.5t-18 -7.5t-17.5 7.5t-7.5 16.5v10q-6 -6 -18 -6q-2 0 -6 1t-5 1q-9 3 -13 13q-2 5 -2 11q0 4 1 9zM1030 57v105q0 10 7 17t18 7t18.5 -7 t7.5 -17v-105q0 -9 -8 -17.5t-18 -8.5t-17.5 8.5t-7.5 17.5zM1030 473v105q0 10 7 17t18 7t18.5 -7t7.5 -17v-105q0 -11 -8 -19t-18 -8t-17.5 8t-7.5 19zM1030 889v102q0 12 7 19.5t18 7.5t18.5 -7.5t7.5 -19.5v-102q0 -11 -8 -19t-18 -8t-17.5 8t-7.5 19zM1030 1096v104 q0 11 7.5 19t17.5 8t18 -8t8 -19v-104q0 -9 -8 -18t-18 -9t-17.5 8.5t-7.5 18.5zM1030 1305v102q0 12 7 19.5t18 7.5t18.5 -7.5t7.5 -19.5v-102q0 -11 -8 -19t-18 -8t-17.5 8t-7.5 19z" />
<glyph unicode="e" horiz-adv-x="1247" d="M141 647q3 12 12.5 17t20.5 2q9 -1 13.5 -11t2.5 -20q-13 -41 -16 -78h90q12 0 19.5 -7t7.5 -18t-7.5 -17.5t-19.5 -6.5h-100q-13 0 -19 6q-11 4 -18 12q-6 7 -6 15q0 41 20 106zM125 434q-1 4 -1 7q0 7 4 13q6 8 19 9q9 2 18 -5t9 -16q4 -32 23 -96q3 -9 -2.5 -18.5 t-14.5 -14.5h-6q-8 0 -15.5 5t-8.5 12q-20 54 -25 104zM180 730q-2 4 -2 7q0 6 4 11q20 39 64 90q6 7 17 8t18 -4q19 -19 2 -39q-35 -45 -58 -78q0 -7 -6.5 -11.5t-11.5 -4.5q-2 0 -14 6q-9 5 -13 15zM197 231q-6 10 -6 18q0 11 12 19q23 10 37 -8q18 -37 59 -78 q17 -18 -2 -37q-6 -6 -16 -6q-15 0 -21 6q-47 55 -63 86zM315 894q2 11 11 15q34 27 94 56q9 4 19.5 0t13.5 -13q4 -11 0 -20t-13 -14q-14 -5 -27.5 -12.5t-33.5 -20t-25 -15.5q-6 -6 -14 -6q-14 0 -21 10q-5 7 -5 15q0 2 1 5zM334 93v5q0 8 4 15q13 22 37 8q42 -30 84 -43 q9 -5 13.5 -15.5t0.5 -17.5q-3 -18 -22 -18l-3 1q-4 1 -8 1q-59 22 -94 49q-10 4 -12 15zM342 532q0 10 8 17.5t19 7.5h102q12 0 19.5 -7t7.5 -18t-7.5 -17.5t-19.5 -6.5h-102q-11 0 -19 7t-8 17zM502 965q-1 12 5 20t15 10q65 9 82 9t27 -5q10 0 17 -7.5t7 -16.5 q-3 -27 -28 -27q-6 4 -23 4q-26 0 -72 -8h-6q-9 0 -15.5 6.5t-8.5 14.5zM526 31q0 10 8 17t19 7q16 -4 51 -4q33 0 45 4q12 0 19.5 -6.5t7.5 -17.5q3 -10 -3.5 -19.5t-17.5 -9.5q-16 -2 -51 -2q-39 0 -59 2q-10 4 -16 12q-4 6 -4 11q0 3 1 6zM549 532q0 10 7.5 17.5 t16.5 7.5h103q12 0 19 -7t7 -18q0 -24 -26 -24h-103q-9 0 -16.5 7t-7.5 17zM709 965q1 11 11 16q6 3 12 3q4 0 7 -1q56 -19 101 -41q18 -12 10 -37q-9 -12 -23 -12q-12 0 -14 2q-62 30 -90 39q-9 2 -13 12q-2 5 -3 10q0 5 2 9zM727 41q-1 3 -1 7q0 6 3 13q5 10 14 13 q24 8 88 43q9 5 20 2t15 -13q6 -6 4 -16t-10 -16q-63 -34 -98 -47h-10q-19 0 -25 14zM754 532q0 10 7.5 17.5t16.5 7.5h105q24 0 24 -25q0 -24 -24 -24h-105q-9 0 -16.5 7t-7.5 17zM882 856q0 10 7 18q10 10 21 10q9 0 18 -7q25 -25 71 -82q5 -7 2.5 -19t-12.5 -18 q-8 -4 -14 -4q-12 0 -21 12q-31 47 -65 72q-7 8 -7 18zM898 159q0 11 7 19q42 42 62 78q17 17 37 6q8 -5 10 -15.5t-2 -19.5q-29 -42 -70 -86q-3 -8 -18 -8q-11 0 -19 8q-7 7 -7 18zM961 532q0 10 7.5 17.5t16.5 7.5h78q10 0 18.5 -7.5t8.5 -17.5t-8.5 -17t-18.5 -7h-78 q-9 0 -16.5 7t-7.5 17zM1002 700q4 10 14 15q4 2 9 2.5t11 -2.5q11 -5 15 -17q19 -46 28 -102q1 -3 1 -6q0 -6 -4 -12q-6 -10 -15 -13h-6q-7 0 -15.5 6.5t-11.5 14.5q-4 33 -24 96q-3 5 -3 11q0 3 1 7z" />
<glyph unicode="f" horiz-adv-x="741" d="M133 983q0 11 7.5 18t17.5 7h104q11 0 19 -7.5t8 -17.5q0 -11 -8.5 -19t-18.5 -8h-104q-10 0 -17.5 8t-7.5 19zM289 27v102q0 11 8 19t18 8q11 0 19 -8t8 -19v-102q0 -11 -8 -19t-19 -8q-10 0 -18 8t-8 19zM289 233v105q0 10 7.5 17t18.5 7t19 -7t8 -17v-105 q0 -10 -8 -18t-19 -8t-18.5 7.5t-7.5 18.5zM289 440v105q0 11 7.5 18.5t18.5 7.5t19 -8t8 -18v-105q0 -10 -8 -17t-19 -7t-18.5 7t-7.5 17zM289 649v103q0 10 7.5 18t18.5 8t19 -8t8 -18v-103q0 -10 -8 -18t-19 -8t-18.5 7.5t-7.5 18.5zM289 856v105q0 10 7.5 17t18.5 7 t19 -7t8 -17v-105q0 -10 -8 -18.5t-19 -8.5q-10 0 -18 8t-8 19zM289 1065v80v24q4 25 26 25q11 0 19 -8t8 -19v-22v-80q0 -11 -8 -19t-19 -8q-10 0 -18 8t-8 19zM303 1278q19 65 57 100q8 8 19 8t18 -8q8 -9 7.5 -20t-9.5 -17q-27 -27 -41 -77q-6 -19 -24 -19h-8 q-9 3 -14.5 13t-4.5 20zM340 983q0 10 8 17.5t19 7.5h102q11 0 19 -7.5t8 -17.5q0 -11 -8 -19t-19 -8h-102q-11 0 -19 8t-8 19zM446 1399q-1 3 -1 6q0 6 5 11q6 9 17 11q40 7 72 7q10 0 18 -8t8 -19q0 -10 -7.5 -17.5t-18.5 -7.5q-34 0 -64 -6h-4q-9 0 -16.5 6.5t-8.5 16.5z " />
<glyph unicode="g" horiz-adv-x="1351" d="M123 457q0 24 22 28q12 0 20.5 -7t8.5 -17q7 -59 19 -96q3 -11 -3 -20.5t-16 -10.5q-2 -4 -6 -4q-22 0 -25 20q-17 61 -20 107zM125 567q10 57 27 107q2 9 11.5 13.5t18.5 0.5q10 -3 15 -13.5t2 -19.5q-15 -47 -21 -96q-7 -20 -26 -20h-2q-12 0 -19 8t-6 20zM182 250 q-1 4 -1 9t2 11q4 10 14 13q8 6 17 3t15 -14q28 -51 56 -79q7 -8 5.5 -19.5t-9.5 -17.5q-6 -6 -15 -6q-13 0 -20 10q-44 51 -64 90zM194 752q-1 4 -1 7q0 7 4 13q34 52 65 86q19 16 37 2q7 -8 7 -20t-7 -19q-37 -43 -59 -78q-2 -10 -21 -10q-10 0 -12 2q-10 6 -13 17z M319 121q6 9 17 10t20 -6q56 -38 84 -49q11 -5 15 -14.5t0 -18.5q-8 -16 -25 -16q-2 0 -4.5 1t-3.5 1q-48 22 -96 55q-11 9 -11 21q0 8 4 16zM338 893q-4 7 -4 14q0 11 12 21q56 36 98 49q10 5 20.5 0.5t14.5 -16.5q3 -9 -2 -19.5t-14 -11.5q-50 -19 -88 -43q-9 -6 -13 -6 q-12 0 -24 12zM449 -379q7 22 32 19q53 -17 97 -17q10 -2 17.5 -10t4.5 -19q0 -9 -6.5 -15.5t-15.5 -6.5h-3q-36 0 -110 16q-17 6 -17 23q0 4 1 10zM515 46q8 6 17 3q50 -4 68 -4h33q9 2 17 -5.5t9 -19.5q0 -21 -24 -28h-35q-5 0 -74 6q-10 1 -17 10q-5 8 -5 16q0 13 11 22z M528 975q0 21 23 29q16 2 49 2q31 0 59 -7q12 0 19.5 -8.5t5.5 -17.5q-4 -25 -27 -25h-2q-54 6 -55 6q-29 0 -43 -4q-11 -2 -19.5 5.5t-9.5 19.5zM653 -401q-1 3 -1 6q0 7 4 13q7 9 18 11q37 4 92 29q24 7 37 -12q10 -24 -15 -35q-50 -24 -104 -33h-6q-7 0 -15 6.5t-10 14.5 zM711 31q-2 6 -2 11q0 16 18 24q50 15 90 40q16 13 33 -8q6 -9 4 -20t-12 -15q-52 -34 -99 -47q-1 0 -3.5 -1t-4.5 -1q-17 0 -24 17zM733 958q11 24 33 17q48 -22 96 -55q22 -13 8 -37q-11 -11 -20 -11q-2 0 -8 3l-8 4q-34 24 -84 47q-11 3 -16 13q-3 6 -3 11q0 4 2 8z M848 -330q-6 11 -6 19q0 11 10 18q38 28 72 68q18 18 34 2q10 -6 11.5 -18t-4.5 -19q-38 -40 -80 -74q-9 -6 -17 -6q-10 0 -20 10zM891 131q-9 9 -9 17.5t9 17.5q38 38 63 78q3 9 14.5 11.5t18.5 -3.5q22 -13 8 -37q-28 -48 -67 -84q-5 -8 -19 -8q-10 0 -18 8zM907 813 q-8 8 -8 17t10 20q8 7 18.5 6.5t18.5 -8.5q50 -59 66 -88q7 -26 -11 -35q-12 -4 -14 -4q-16 0 -22 12q-20 36 -58 80zM974 -164q-1 3 -1 7q0 6 4 12q23 42 35 94q1 9 11 14.5t19 3.5q9 -3 15.5 -12t3.5 -18q-11 -52 -37 -105q-10 -14 -23 -14q-8 0 -14 4q-9 3 -13 14z M1024 45v4v101q0 9 7.5 16.5t19.5 7.5q9 0 16.5 -7.5t7.5 -16.5v-101v-4q0 -12 -7.5 -19.5t-16.5 -7.5q-12 0 -19.5 7.5t-7.5 19.5zM1024 252v104q0 10 8 18.5t19 8.5q9 0 16.5 -9t7.5 -18v-104q0 -10 -7.5 -17.5t-16.5 -7.5q-12 0 -19.5 7t-7.5 18zM1024 461v102 q0 11 7.5 19t19.5 8q9 0 16.5 -8.5t7.5 -18.5v-102q0 -12 -7.5 -19.5t-16.5 -7.5q-12 0 -19.5 7.5t-7.5 19.5zM1024 668v104q0 10 8 18.5t19 8.5q9 0 16.5 -9t7.5 -18v-104q0 -10 -7.5 -18.5t-16.5 -8.5q-12 0 -19.5 8t-7.5 19zM1024 877v102q0 11 7.5 19t19.5 8 q9 0 16.5 -8.5t7.5 -18.5v-102q0 -12 -7.5 -19.5t-16.5 -7.5q-12 0 -19.5 7.5t-7.5 19.5z" />
<glyph unicode="h" horiz-adv-x="1255" d="M190 27v28v4v105q0 9 8.5 16.5t18.5 7.5t17.5 -7.5t7.5 -16.5v-137q0 -11 -7.5 -19t-17.5 -8q-11 0 -19 8t-8 19zM190 233v105v4v29q0 9 8.5 17.5t18.5 8.5t17.5 -8.5t7.5 -17.5v-105v-6v-27q0 -9 -7.5 -17.5t-17.5 -8.5t-18.5 8.5t-8.5 17.5zM190 440v105v4v29 q0 10 8 18t19 8q10 0 17.5 -7.5t7.5 -18.5v-103v-6v-29q0 -9 -7.5 -16.5t-17.5 -7.5t-18.5 7.5t-8.5 16.5zM190 682v104q0 9 8.5 17t18.5 8t17.5 -8t7.5 -17v-12q8 0 14 -2q9 -3 13 -13.5t-1 -19.5q-17 -49 -22 -94q0 -9 -9 -15.5t-18 -6.5h-2q-11 2 -17.5 10t-6.5 20 q0 9 2 13q-5 5 -5 16zM190 889v104q0 9 8.5 17t18.5 8t17.5 -8t7.5 -17v-104q0 -11 -7 -18t-18 -7t-19 7.5t-8 17.5zM190 1096v104q0 9 8.5 18t18.5 9t17.5 -8.5t7.5 -18.5v-104q0 -10 -7 -17.5t-18 -7.5t-19 7.5t-8 17.5zM190 1305v102q0 11 8 19t19 8q10 0 17.5 -8 t7.5 -19v-102q0 -12 -7 -19.5t-18 -7.5t-19 7.5t-8 19.5zM276 856q35 45 78 74q9 7 19.5 6t15.5 -10q9 -8 7 -18.5t-11 -18.5q-35 -23 -68 -68q-12 -8 -20 -8q-10 0 -16 6q-10 8 -10 19q0 8 5 18zM436 952q-1 3 -1 6q-1 6 3 12q6 10 15 15q49 18 106 27q11 0 20 -7.5 t9 -17.5q2 -11 -5.5 -20t-19.5 -9q-45 -3 -92 -22h-10q-17 0 -25 16zM639 985q1 9 11 15q8 6 17 6h3q59 -13 104 -33q9 -6 12.5 -17t-0.5 -20q-6 -12 -22 -12q-8 0 -10 2q-48 20 -95 28q-9 2 -15 10.5t-5 20.5zM824 891q0 10 7 16q4 9 16 9q1 0 1 1q11 0 18 -8 q47 -40 74 -82q12 -20 -8 -36q-9 -3 -17 -3q-12 0 -20 11q-24 39 -61 71q-10 8 -10 21zM938 711q-2 5 -2 9t2 10q4 10 14 13q4 2 9 2q5 -1 11 -3q11 -6 15 -17q14 -45 17 -109q0 -9 -7.5 -16.5t-17.5 -7.5q-12 0 -19.5 6.5t-7.5 17.5q-2 38 -14 95zM952 27v71q0 12 7.5 19.5 t19.5 7.5q9 0 17 -7.5t8 -19.5v-71q0 -10 -8 -18.5t-17 -8.5q-12 0 -19.5 8t-7.5 19zM952 203v102q0 12 7.5 19.5t19.5 7.5q9 0 17 -8t8 -19v-102q0 -10 -8 -18.5t-17 -8.5q-12 0 -19.5 8t-7.5 19zM952 410v104q0 11 7.5 18t19.5 7q9 0 17 -7.5t8 -17.5v-104q0 -9 -8 -18 t-17 -9q-11 0 -19 8.5t-8 18.5z" />
<glyph unicode="i" horiz-adv-x="575" d="M193 27v106q0 11 8 19t18 8q11 0 19 -8t8 -19v-106q0 -11 -8 -19t-19 -8q-10 0 -18 8t-8 19zM193 238v106q0 12 7.5 19.5t18.5 7.5t19 -7.5t8 -19.5v-106q0 -9 -8.5 -17t-18.5 -8t-18 8t-8 17zM193 451v106q0 11 8 19t18 8q11 0 19 -8t8 -19v-106q0 -9 -8.5 -18t-18.5 -9 t-18 9t-8 18zM193 664v104q0 12 7.5 19.5t18.5 7.5t19 -7.5t8 -19.5v-104q0 -9 -8.5 -18t-18.5 -9t-18 9t-8 18zM193 874v107q0 11 8 19t18 8q11 0 19 -8t8 -19v-107q0 -9 -8.5 -17.5t-18.5 -8.5t-18 8.5t-8 17.5zM193 1255v50q0 11 7.5 18.5t18.5 7.5t19 -8t8 -18v-50 q0 -10 -8 -18t-19 -8t-18.5 7.5t-7.5 18.5z" />
<glyph unicode="j" horiz-adv-x="509" d="M-10 -416q0 12 7.5 20.5t16.5 8.5h4q27 0 27 -29q0 -9 -7.5 -16.5t-17.5 -7.5h-6q-9 0 -16.5 7t-7.5 17zM86 -372q0 11 8 18q27 34 27 69v6q0 13 7 20t17 7q29 0 29 -27v-6q0 -58 -43 -104q-5 -8 -18 -8q-12 0 -17 8q-10 4 -10 17zM121 39v106q0 10 7.5 17.5t16.5 7.5 q13 0 21 -7t8 -18v-106q0 -10 -8 -17.5t-21 -7.5q-9 0 -16.5 8t-7.5 17zM121 -70q0 13 7 21t17 8q29 0 29 -29v-102q0 -10 -8 -18.5t-21 -8.5q-9 0 -16.5 9t-7.5 18v102zM121 248v106q0 12 7.5 19.5t16.5 7.5q29 0 29 -27v-106q0 -10 -8 -17.5t-21 -7.5q-9 0 -16.5 8 t-7.5 17zM121 459v106q0 10 7.5 17.5t16.5 7.5q13 0 21 -7t8 -18v-106q0 -10 -8 -18.5t-21 -8.5q-9 0 -16.5 9t-7.5 18zM121 668v106q0 10 7.5 17.5t16.5 7.5q13 0 21 -7t8 -18v-106q0 -10 -8 -17.5t-21 -7.5q-9 0 -16.5 8t-7.5 17zM121 877v108q0 12 7.5 19.5t16.5 7.5 q29 0 29 -27v-108q0 -10 -8 -17.5t-21 -7.5q-9 0 -16.5 8t-7.5 17zM127 1255v52q0 10 8 17t17 7q26 0 26 -24v-52q0 -10 -6.5 -18t-19.5 -8q-9 0 -17 8.5t-8 17.5z" />
<glyph unicode="k" horiz-adv-x="1146" d="M190 59v105q0 9 7.5 16.5t19.5 7.5q9 0 17 -7.5t8 -16.5v-105q0 -10 -8 -18t-17 -8q-12 0 -19.5 7.5t-7.5 18.5zM190 266v105q0 10 8 18t19 8q9 0 17 -8.5t8 -17.5v-27l43 45q17 17 34 0q7 -7 7 -19t-7 -18l-71 -76q-4 -4 -6 -4v-6q0 -10 -8 -17t-17 -7q-12 0 -19.5 6.5 t-7.5 17.5zM190 475v103q0 11 7.5 18.5t19.5 7.5q9 0 17 -8t8 -18v-103q0 -11 -7.5 -18.5t-17.5 -7.5q-27 0 -27 26zM190 682v104q0 10 8 17.5t19 7.5q9 0 17 -8t8 -17v-104q0 -12 -8 -19.5t-17 -7.5q-12 0 -19.5 7.5t-7.5 19.5zM190 889v104q0 9 8 17t19 8q9 0 17 -8t8 -17 v-104q0 -10 -8 -17.5t-17 -7.5q-12 0 -19.5 7t-7.5 18zM190 1096v104q0 10 8 18.5t19 8.5q9 0 17 -9t8 -18v-104q0 -10 -8 -17.5t-17 -7.5q-12 0 -19.5 7t-7.5 18zM190 1305v102q0 11 7.5 19t19.5 8q9 0 17 -8.5t8 -18.5v-102q0 -11 -8 -19t-17 -8q-12 0 -19.5 7.5 t-7.5 19.5zM348 444q0 10 8 17l76 74q6 7 17 7t18 -7q9 -7 9 -18t-9 -19l-74 -72q-8 -8 -18 -8q-11 0 -19 8t-8 18zM483 555q17 17 37 -2l64 -82q7 -8 6.5 -19t-8.5 -16q-4 -6 -19 -6q-10 0 -18 8l-66 80q-6 6 -6 17q0 14 10 20zM496 589q0 11 8 17l74 76q17 17 34 0 q8 -8 8 -19t-8 -18l-71 -76q-9 -6 -19 -6q-9 0 -18 6q-8 9 -8 20zM616 393q16 17 35 -2l66 -80q17 -17 -2 -37q-12 -4 -19 -4q-10 0 -18 11l-68 77q-6 7 -6 16q0 14 12 19zM649 719q-8 8 -8.5 17t8.5 18l76 73q17 17 35 0q9 -7 9 -18t-9 -18l-72 -72q-5 -8 -20 -8 q-11 0 -19 8zM743 199q-7 10 -7 19q0 10 9 18q22 15 39 -5l66 -77q10 -24 -4 -39q-6 -6 -19 -6q-11 0 -16 10zM790 883q0 11 7 20l73 72q9 8 17.5 8.5t17.5 -8.5q7 -7 7 -18t-7 -19l-71 -72q-8 -8 -19 -8q-10 0 -18 8q-7 6 -7 17zM877 76q10 7 18 7q10 0 18 -11l25 -27 q7 -10 7 -18q0 -11 -11 -19q-5 -8 -14 -8q-11 0 -21 10l-25 29q-6 7 -6 16q0 12 9 21z" />
<glyph unicode="l" horiz-adv-x="509" d="M205 27v106q0 27 26 27q12 0 19.5 -7.5t7.5 -19.5v-106q0 -11 -7.5 -19t-19.5 -8t-19 8t-7 19zM205 240v106q0 11 7 18t19 7t19.5 -7t7.5 -18v-106q0 -11 -7.5 -19t-19.5 -8t-19 8t-7 19zM205 451v106q0 27 26 27q12 0 19.5 -7.5t7.5 -19.5v-106q0 -10 -8 -18.5t-19 -8.5 t-18.5 8.5t-7.5 18.5zM205 664v106q0 27 26 27q12 0 19.5 -7.5t7.5 -19.5v-106q0 -10 -8 -18.5t-19 -8.5t-18.5 8.5t-7.5 18.5zM205 877v106q0 11 7 19t19 8t19.5 -8t7.5 -19v-106q0 -11 -7.5 -19t-19.5 -8t-19 8t-7 19zM205 1087v107q0 27 26 27q12 0 19.5 -7.5t7.5 -19.5 v-107q0 -9 -7.5 -16.5t-19.5 -7.5q-11 0 -18.5 7.5t-7.5 16.5zM205 1300v107q0 27 26 27q12 0 19.5 -7.5t7.5 -19.5v-107q0 -10 -8 -18t-19 -8t-18.5 8t-7.5 18z" />
<glyph unicode="m" horiz-adv-x="1947" d="M190 27v20v4v78v4v23q0 8 8 16t19 8q10 0 17.5 -8t7.5 -16v-23v-4v-102q0 -11 -8 -19t-17 -8q-12 0 -19.5 7.5t-7.5 19.5zM190 231v103v4v22q0 10 8 17.5t19 7.5q10 0 17.5 -8t7.5 -17v-22v-4v-103q0 -11 -7.5 -18.5t-17.5 -7.5q-27 0 -27 26zM190 436v103v4v22q0 9 8 17 t19 8q10 0 17.5 -8t7.5 -17v-22v-4v-103q0 -10 -8 -17t-17 -7q-12 0 -19.5 6.5t-7.5 17.5zM190 668v102q0 11 7.5 18t19.5 7q11 0 18 -7.5t7 -17.5v-4h14q20 -10 12 -33q-22 -57 -22 -94q-8 -23 -27 -23h-2q-12 0 -19 8.5t-5 20.5v8q-3 6 -3 15zM190 872v105q0 9 7.5 16.5 t19.5 7.5q10 0 17.5 -7.5t7.5 -16.5v-105q0 -12 -7 -19t-18 -7q-27 0 -27 26zM274 846q49 53 76 76q11 6 21.5 5t15.5 -9q17 -23 -4 -37q-41 -30 -66 -68q-10 -10 -20 -10q-3 0 -8.5 2t-7.5 2q-13 11 -13 23q0 8 6 16zM434 940q-3 7 -3 13q0 15 18 20q49 19 106 26h5 q20 0 24 -22q0 -11 -7.5 -19.5t-17.5 -9.5q-41 -2 -92 -20l-8 -4q-22 0 -25 16zM637 973q0 22 29 22q49 -8 102 -34q9 -3 13 -13.5t-1 -19.5q-7 -17 -22 -17q-9 0 -13 2q-27 15 -88 33q-11 2 -17 10q-4 5 -4 11q0 3 1 6zM817 882q0 11 6 17q17 17 35 2q45 -42 74 -84 q5 -7 3 -18t-11 -15q-2 -4 -13 -4q-17 0 -22 8q-17 31 -64 74q-8 7 -8 20zM928 705q-1 2 -1 5q1 7 5 14q6 10 14 11q12 4 21 -2q1 3 4 9.5t4 9.5q7 21 33 14q20 -10 12 -33q-18 -56 -23 -94q0 -8 -4 -12v-17q3 -10 -4 -17t-16 -7h-2q-23 0 -27 22q0 47 -16 97zM944 27v102 q0 11 8 19t19 8q9 0 15.5 -8t6.5 -19v-20q4 -8 4 -15v-67q0 -11 -7 -19t-15 -8h-4h-4q-9 0 -16 7.5t-7 19.5zM944 231v103q0 9 8.5 17.5t18.5 8.5q9 0 15.5 -8.5t6.5 -17.5v-19q4 -8 4 -12v-104q0 -10 -8 -17.5t-16 -7.5q-12 0 -19.5 7t-7.5 18v20q-2 4 -2 12zM944 436v103 q0 9 8.5 17.5t18.5 8.5q9 0 15.5 -8.5t6.5 -17.5v-19q4 -8 4 -12v-100q0 -11 -8 -19t-16 -8q-12 0 -19.5 7.5t-7.5 19.5v18q-2 2 -2 10zM1026 846q49 53 82 76q17 14 35 -4q12 -21 -4 -37q-43 -32 -70 -68q-10 -10 -22 -10q-2 0 -7.5 2t-7.5 2q-10 10 -10 22q0 8 4 17z M1186 940q-1 6 -1 10q0 17 17 23q48 19 105 26h3q10 0 17 -5q8 -6 8 -17q2 -11 -5 -19.5t-19 -9.5q-41 -3 -90 -20q-2 -4 -11 -4q-14 0 -24 16zM1417 995q57 -9 105 -34q9 -3 12 -13t0 -20q-7 -17 -23 -17q-8 0 -12 2q-33 19 -92 33q-9 2 -15 10q-6 7 -6 15q0 24 31 24z M1571 882q0 11 6 17q7 7 19 7q1 0 1 1q10 0 17 -6q26 -26 72 -84q4 -8 1.5 -18t-10.5 -15q-4 -4 -16 -4q-13 0 -21 8q-18 33 -59 74q-10 7 -10 20zM1683 705q-2 4 -2 8q0 5 3 11q5 10 14 11q5 2 9 2l11 -3q10 -4 13 -13q15 -59 18 -111q0 -10 -7 -17t-18 -7q-12 0 -19 6.5 t-7 15.5q-2 28 -15 97zM1698 27v71q0 10 7.5 17.5t18.5 7.5q9 0 17 -8t8 -17v-71q0 -11 -7.5 -19t-17.5 -8q-26 0 -26 27zM1698 199v104q0 10 7.5 18.5t18.5 8.5q9 0 17 -9t8 -18v-104q0 -10 -8 -17.5t-17 -7.5q-12 0 -19 7t-7 18zM1698 408v100q0 10 7 17t19 7q9 0 17 -7.5 t8 -16.5v-100q0 -12 -7.5 -19.5t-17.5 -7.5q-26 0 -26 27z" />
<glyph unicode="n" horiz-adv-x="1255" d="M190 27v18v6v78v4v23q0 9 7.5 16.5t19.5 7.5q9 0 17 -7.5t8 -16.5v-23v-4v-78v-6v-18q0 -11 -8 -19t-17 -8q-12 0 -19.5 7.5t-7.5 19.5zM190 231v103v4v22q0 10 8 17.5t19 7.5q9 0 17 -8t8 -17v-104v-6v-19q0 -10 -8 -17t-17 -7q-12 0 -19.5 6.5t-7.5 17.5zM190 436v105 v4v20q0 11 7.5 19t19.5 8q9 0 17 -8.5t8 -18.5v-129q0 -10 -8 -17t-17 -7q-12 0 -19.5 6.5t-7.5 17.5zM190 670v102q0 10 8 17.5t19 7.5q9 0 17 -8t8 -17v-4q6 0 10 -2q9 -3 14 -13t2 -20q-22 -49 -22 -92q-6 -23 -27 -23h-2q-12 0 -19 8.5t-5 20.5v8q-3 6 -3 15zM190 874 v103q0 11 7.5 19t19.5 8q9 0 17 -8.5t8 -18.5v-103q0 -11 -7.5 -18.5t-17.5 -7.5q-27 0 -27 26zM274 848q37 44 78 76q7 6 19 4.5t18 -8.5q13 -22 -6 -37q-38 -30 -70 -68q-7 -10 -20 -10q-2 0 -7 2t-7 2q-11 11 -11 23q0 8 6 16zM436 942q-3 8 -3 14q0 13 13 19 q61 21 109 26h5q8 0 14 -5q8 -7 10 -19q0 -21 -23 -29q-22 0 -96 -18q-2 -4 -6 -4q-23 0 -23 16zM637 975q1 11 9 17q6 4 13 4q3 0 5 -1q40 -4 106 -32q9 -3 12 -13.5t-2 -19.5q-7 -17 -24 -17q-8 0 -8 2q-19 9 -93 33q-9 0 -15 9q-4 6 -4 12q0 3 1 6zM823 901q9 7 19 7 q9 0 18 -5q45 -45 72 -84q5 -7 3.5 -19t-11.5 -18q-4 -2 -13 -2q-16 0 -24 11q-14 25 -62 73q-10 7 -10 17q0 9 8 20zM928 705q-1 4 -1 8q-1 7 3 12q6 9 18 10q4 2 8 2l10 -3q9 -4 11 -13q18 -67 18 -109q0 -24 -22 -28h-2q-10 0 -18.5 7.5t-8.5 16.5q0 47 -16 97zM944 27 v67q0 12 8 19.5t19 7.5t17.5 -7.5t6.5 -19.5v-67q0 -12 -6.5 -19.5t-17.5 -7.5t-19 7.5t-8 19.5zM944 199v102q0 12 8 19.5t19 7.5t17.5 -7.5t6.5 -19.5v-102q0 -11 -7 -19t-17 -8q-11 0 -19 8t-8 19zM944 403v105q0 10 8 17t19 7t17.5 -7t6.5 -17v-105q0 -9 -7 -16.5 t-17 -7.5t-18.5 7.5t-8.5 16.5z" />
<glyph unicode="o" horiz-adv-x="1280" d="M143 489v13q0 51 11 94q2 9 10.5 16t17.5 6q24 -6 21 -32q-8 -58 -8 -84v-10q0 -12 -7 -20.5t-16 -8.5h-2q-11 0 -19 8t-8 18zM156 381v5q0 19 20 26q9 4 19 -2t12 -17q10 -41 31 -92q6 -9 1 -19.5t-14 -13.5q-2 -4 -10 -4q-12 0 -22 17q-19 37 -37 100zM182 700 q34 71 51 95q6 10 18 11.5t19 -3.5q20 -13 6 -37q-32 -49 -45 -84q-11 -18 -24 -18l-8 2q-11 4 -16 14q-3 5 -3 11q0 5 2 9zM250 188q-9 7 -9 15q0 10 13 20q17 14 35 -4q14 -21 67 -74q16 -10 4 -34q-14 -9 -22 -9q-2 0 -7 2t-7 2q-51 44 -74 82zM303 842q-7 8 -7 17t9 18 q37 37 88 65q7 5 18.5 2t14.5 -10q5 -9 2.5 -20t-10.5 -17q-17 -8 -80 -55q-5 -8 -14 -8q-16 0 -21 8zM399 82q6 9 17 12.5t20 -0.5q44 -21 90 -33q12 -1 18 -10t3 -20q-1 -9 -9 -15t-16 -6h-6q-65 18 -102 39q-17 7 -17 22q0 5 2 11zM475 952q-1 4 -1 8q0 6 3 12 q5 10 17 13q53 16 106 19q11 0 19 -7.5t8 -19.5q0 -11 -7.5 -18t-19.5 -7q-60 -7 -94 -16l-6 -2q-8 0 -16 5.5t-9 12.5zM600 27q-1 3 -1 5q-1 6 5 12q8 8 19 7q53 0 96 12q23 6 33 -18q0 -23 -19 -33q-74 -12 -108 -12q-25 0 -25 27zM688 989q7 4 16 5q3 0 5 -1 q52 -11 104 -35q9 -4 12 -14.5t-2 -19.5q-7 -15 -22 -15q-10 0 -10 4q-43 18 -91 31q-22 5 -22 24q-1 14 10 21zM797 63q-3 7 -3 13q0 13 13 24q54 30 80 56q7 6 19 5t18 -9q8 -7 7 -17.5t-11 -17.5q-36 -36 -86 -62q-6 -4 -15 -4q-16 0 -22 12zM866 897q9 11 19 11 q8 0 16 -7q41 -28 78 -78q8 -8 7 -18.5t-9 -18.5q-8 -4 -19 -4q-9 0 -20 11q-23 35 -66 69q-11 9 -11 20q0 7 5 15zM947 213q0 9 5 14q25 32 49 84q3 9 12.5 13t20.5 0q9 -3 13.5 -13.5t1.5 -19.5q-8 -20 -54 -96q-11 -11 -20 -11q-3 0 -5.5 1t-6 2.5t-5.5 2.5q-11 8 -11 23 zM991 709q-3 7 -3 14q0 12 13 20q9 5 16 5q13 0 21 -15q28 -61 37 -100q2 -11 -3.5 -20.5t-14.5 -12.5h-8q-19 0 -23 21q-11 41 -35 88zM1030 403q8 41 8 99v20q0 22 27 29q10 0 18.5 -8t8.5 -19v-22q0 -52 -12 -109q-3 -20 -27 -20h-4q-9 1 -15 11q-4 8 -4 14v5z" />
<glyph unicode="p" horiz-adv-x="1351" d="M190 -4v104q0 10 8 17.5t19 7.5t18 -7.5t7 -17.5v-104q0 -9 -7.5 -17t-17.5 -8t-18.5 8t-8.5 17zM190 -106q0 10 8 17t19 7t18 -7t7 -17v-105q0 -10 -7.5 -18.5t-17.5 -8.5t-18.5 9t-8.5 18v105zM190 203v104q0 12 8 19.5t19 7.5q12 0 19 -10q2 2 10 6q9 4 19.5 0 t13.5 -13q12 -30 49 -86q6 -9 5 -19t-9 -15q-10 -7 -17 -7q-15 0 -20 11q-26 30 -45 73v-71q0 -9 -7.5 -17t-17.5 -8t-18.5 8t-8.5 17zM190 -315q0 12 8 19t19 7t18 -7t7 -19v-103q0 -11 -7.5 -18.5t-17.5 -7.5q-11 0 -19 8t-8 18v103zM190 412v102q0 12 8 19.5t19 7.5 t18 -7.5t7 -19.5v-102q0 -11 -7.5 -19t-17.5 -8q-11 0 -19 8.5t-8 18.5zM190 618v105q0 10 8 17.5t19 7.5t18 -7t7 -18v-12q12 16 28 6q10 -3 14 -13t1 -20q-6 -9 -6 -14q-6 -15 -23 -15q-8 0 -10 2q-4 0 -4 2v-41q0 -9 -7.5 -17.5t-17.5 -8.5t-18.5 8.5t-8.5 17.5zM190 825 v105q0 10 8 18t19 8q10 0 17.5 -7.5t7.5 -18.5v-105q0 -9 -7.5 -16.5t-17.5 -7.5t-18.5 7.5t-8.5 16.5zM291 801q33 38 76 78q9 7 19.5 5t16.5 -10q7 -8 6.5 -18.5t-8.5 -15.5q-44 -40 -67 -74q-12 -8 -23 -8q-10 0 -14 6q-10 8 -10 20q0 8 4 17zM349 140q0 11 7 18 t18.5 7.5t18.5 -5.5q31 -31 80 -58q9 -3 12.5 -13t-2.5 -19q-7 -17 -22 -17q-6 0 -15 6q-47 21 -88 62q-9 6 -9 19zM446 903q-2 6 -2 11q0 16 17 24q48 28 100 39q27 3 31 -19q8 -22 -19 -34q-12 -1 -25 -5t-21 -7t-23.5 -10t-20.5 -9q-8 -4 -12 -4q-17 0 -25 14zM532 49 q2 11 11.5 16t19.5 1q67 -13 96 -13q9 0 18 -8t9 -18t-8.5 -17.5t-18.5 -7.5q-31 0 -108 14q-12 3 -17 12q-3 6 -3 13q0 4 1 8zM645 963q0 10 8 18t17 8q42 0 108 -12q28 -12 19 -33q-1 -9 -8 -14.5t-15 -5.5h-8q-54 14 -96 14q-9 0 -17 7.5t-8 17.5zM737 33q-1 3 -1 6 q0 6 4 13q7 9 16 11q34 6 94 31q9 4 18.5 0.5t14.5 -12.5t1 -19.5t-12 -13.5q-60 -28 -104 -37h-8q-8 0 -15 6t-8 15zM846 924q10 16 25 16q6 0 12 -2q48 -28 90 -64q7 -4 8 -15.5t-4 -18.5q-9 -9 -23 -9q-9 0 -14 5q-57 43 -80 55q-16 10 -16 23q0 5 2 10zM930 147 q42 34 69 70q6 7 18 8.5t19 -4.5q18 -18 4 -35q-34 -43 -77 -77q-6 -9 -15 -9q-11 0 -22 11q-4 6 -4 15q0 14 8 21zM1004 764q-4 9 -4 17q0 11 10 20q7 5 15 5h5q11 -2 17 -11q32 -40 57 -95q8 -23 -14 -32q-4 -2 -11 -2q-18 0 -24 14q-27 56 -51 84zM1048 280q-1 3 -1 7 q0 6 4 12q22 45 30 94q3 10 13 16t20 3t16 -12t5 -19q-17 -64 -37 -102q-6 -15 -23 -15q-8 0 -14 2q-9 3 -13 14zM1085 588q-1 3 -1 6q0 6 4 13q6 10 18 11h4q16 0 27 -20q10 -58 10 -104v-5q-2 -11 -9.5 -18.5t-17.5 -7.5h-2q-9 0 -16 8t-6 18v5q0 9 -11 94z" />
<glyph unicode="q" horiz-adv-x="1351" d="M123 494v4q0 60 10 104q2 9 11 15.5t18 5.5q11 -1 16.5 -11t3.5 -20q-8 -58 -8 -94v-4q0 -10 -7.5 -18.5t-16.5 -8.5q-12 0 -19.5 8t-7.5 19zM135 385q-1 3 -1 7q0 6 4 12q6 9 16 12t19 -3.5t11 -15.5q11 -49 33 -94q5 -9 2 -19.5t-12 -13.5q-6 -2 -14 -2q-17 0 -23 15 q-22 43 -35 102zM164 705q24 52 57 94q15 22 37 6q8 -6 9 -17t-5 -20q-31 -42 -49 -84q-6 -14 -23 -14q-8 0 -12 2q-16 7 -16 21q0 6 2 12zM227 190q-6 7 -6 15q0 10 10 20q7 6 19 5.5t18 -9.5q28 -38 70 -69q7 -6 7.5 -18t-5.5 -19q-6 -9 -21 -9q-9 0 -14 7q-46 36 -78 77z M295 879q31 29 90 63q24 8 37 -14q8 -21 -10 -33q-28 -14 -84 -55q-2 -4 -17 -4q-12 0 -20 8q-6 6 -6 17q0 14 10 18zM384 66q-2 5 -2 9q0 6 3 11q3 9 13.5 13t19.5 -1q57 -24 94 -30q9 -2 15 -12t3 -19q-7 -21 -24 -21h-6q-56 13 -103 37q-9 3 -13 13zM471 948q-2 6 -2 10 q0 14 18 23q74 12 111 12q9 0 17 -8t8 -18q0 -11 -7.5 -18t-17.5 -7q-42 0 -96 -14h-8q-8 0 -15 5.5t-8 14.5zM582 31q0 11 8 18.5t18 7.5q26 0 97 13q10 4 18.5 -1t11.5 -16t-2.5 -20.5t-15.5 -12.5q-49 -14 -107 -14h-2q-11 0 -18.5 7.5t-7.5 17.5zM676 963q1 9 10 15 q7 4 15 4q3 0 6 -1q51 -11 102 -39q23 -10 12 -35q-8 -14 -24 -14q-7 0 -11 4q-7 3 -22 9t-24 9.5t-22.5 7.5t-25.5 5q-17 9 -17 25q0 5 1 10zM782 93q4 10 13 13q47 26 79 58q7 6 18.5 5.5t18.5 -7.5q7 -8 6.5 -19.5t-8.5 -17.5q-41 -41 -88 -62q-9 -6 -14 -6q-16 0 -23 17 q-4 5 -4 11q0 4 2 8zM857 861q0 11 7 18q6 8 17.5 9.5t19.5 -5.5q42 -36 74 -82q14 -17 -4 -35q-9 -6 -17 -6q-5 0 -20 10q-27 36 -68 74q-9 5 -9 17zM936 216v5q0 8 4 15q26 35 49 86q3 9 13.5 13t19.5 -1q4 -2 8 -6q7 10 21 10q10 0 18 -8t8 -19v-104q0 -9 -8.5 -17 t-17.5 -8q-10 0 -17.5 8t-7.5 17v69q-18 -37 -45 -71q-7 -10 -20 -10q-10 0 -13 6q-10 4 -12 15zM983 688q-1 5 -1 9q0 6 2 11q3 10 13 13q15 8 29 -6v12q0 11 7 18t18 7q9 0 17.5 -7.5t8.5 -17.5v-104q0 -9 -8.5 -18t-17.5 -9q-10 0 -17.5 8.5t-7.5 18.5v41l-4 -2 q-3 -3 -10 -3q-17 0 -23 15q0 5 -6 14zM1026 0v104q0 10 7 17.5t18 7.5q9 0 17.5 -7.5t8.5 -17.5v-104q0 -9 -8.5 -17t-17.5 -8q-10 0 -17.5 8t-7.5 17zM1026 -102q0 10 7 17t18 7q10 0 18 -7t8 -17v-105q0 -9 -8.5 -17.5t-17.5 -8.5q-10 0 -17.5 8.5t-7.5 17.5v105z M1026 -311q0 12 7 19t18 7q10 0 18 -7.5t8 -18.5v-103q0 -10 -8.5 -18t-17.5 -8q-10 0 -17.5 7.5t-7.5 18.5v103zM1026 416v102q0 12 7 19.5t18 7.5q10 0 18 -8t8 -19v-102q0 -10 -8.5 -18.5t-17.5 -8.5q-10 0 -17.5 8t-7.5 19zM1026 829v105q0 11 7.5 19t17.5 8 q9 0 17.5 -8.5t8.5 -18.5v-105q0 -9 -8.5 -16.5t-17.5 -7.5q-10 0 -17.5 7.5t-7.5 16.5z" />
<glyph unicode="r" horiz-adv-x="899" d="M190 27v104q0 11 7.5 20t19.5 9q9 0 18 -9.5t9 -19.5v-104q0 -11 -8.5 -19t-18.5 -8q-12 0 -19.5 7.5t-7.5 19.5zM190 238v106q0 11 7.5 19t19.5 8q9 0 18 -8.5t9 -18.5v-106q0 -10 -9 -18.5t-18 -8.5q-12 0 -19.5 8t-7.5 19zM190 449v45v2v59q0 11 7.5 19t19.5 8h4l8 16 q3 10 13 14.5t20 -0.5q10 -3 15 -13t2 -21q-21 -48 -35 -89v-40q0 -10 -8.5 -17.5t-18.5 -7.5q-12 0 -19.5 7t-7.5 18zM190 662v104q0 11 7.5 20t19.5 9q9 0 18 -9.5t9 -19.5v-104q0 -11 -8.5 -19t-18.5 -8q-12 0 -19.5 7.5t-7.5 19.5zM190 872v107q0 10 8 18.5t19 8.5 q9 0 18 -9t9 -18v-107q0 -11 -8.5 -18.5t-18.5 -7.5q-27 0 -27 26zM274 676q-1 4 -1 8q0 6 3 10q32 59 60 94q6 9 17 11t20 -4q18 -18 6 -39q-37 -54 -55 -84q-10 -17 -25 -17q-2 0 -6.5 3t-5.5 4q-10 3 -13 14zM400 852q0 12 8 20q43 37 88 70q24 8 36 -12q6 -8 3 -19 t-11 -16q-36 -20 -80 -64q-6 -6 -18 -6q-9 0 -18 6q-8 9 -8 21zM580 954q-1 4 -1 7q0 6 3 12q5 9 16 12q52 15 111 21q10 0 18 -9t8 -18q0 -27 -26 -27q-66 -8 -97 -16q-4 -2 -6 -2q-9 0 -17 5.5t-9 14.5z" />
<glyph unicode="s" horiz-adv-x="1007" d="M154 885q8 9 18 10t18 -6q8 -6 10 -17t-5 -20q-31 -39 -37 -80q-1 -9 -9.5 -14.5t-17.5 -5.5h-2q-11 2 -17 10q-6 7 -6 15q0 48 48 108zM125 666q-3 7 -3 13q0 12 13 21q25 11 35 -12q23 -38 63 -63q8 -6 10.5 -16.5t-3.5 -18.5q-6 -12 -21 -12q-6 0 -14 4q-53 35 -80 84 zM158 121q14 21 37 10q48 -28 88 -43q21 -10 14 -35q-6 -16 -25 -16q-1 0 -4 1t-4 1q-39 16 -96 47q-14 9 -14 21q0 7 4 14zM228 942q4 10 14 14q58 30 102 39q9 3 18.5 -3t12.5 -15q2 -11 -4.5 -20.5t-16.5 -10.5q-39 -9 -88 -35q-8 -4 -12 -4q-16 0 -23 15q-4 6 -4 12 q0 4 1 8zM287 567q3 10 12.5 14.5t19.5 0.5q42 -14 97 -27q9 -2 15 -11.5t3 -19.5q-3 -20 -24 -20q-5 0 -7 2q-60 14 -102 29q-9 3 -13 13q-2 5 -3 10q0 4 2 9zM346 39q1 10 10.5 17t20.5 5q35 -6 69 -6h27q11 0 19 -7t8 -17q0 -11 -7.5 -19t-17.5 -8q-5 0 -14.5 -1 t-14.5 -1q-25 0 -79 8q-11 2 -17 10q-5 6 -4 14v5zM426 981q0 11 8 19q8 7 17 6h2q50 0 106 -17q11 -3 16.5 -13t2.5 -20q-7 -18 -25 -18q-6 0 -8 2q-51 14 -94 14q-10 0 -17.5 8t-7.5 19zM485 516q3 10 12 16t19 3q44 -12 102 -33q9 -3 13.5 -13.5t1.5 -19.5 q-6 -16 -25 -16q-6 0 -10 2q-56 19 -94 28q-10 3 -16 13q-4 6 -4 13q0 3 1 7zM551 39q-1 3 -1 7q0 6 3 13q5 10 14 13q39 12 88 41q22 11 35 -9q6 -9 3.5 -19.5t-11.5 -16.5q-41 -25 -98 -45h-9q-18 0 -24 16zM623 916q-1 4 -1 8q0 6 3 12q5 9 15 12q4 1 7 1q6 0 12 -3 q20 -11 91 -55q19 -15 6 -35q-6 -12 -21 -12q-6 0 -14 4q-82 51 -86 53q-9 4 -12 15zM673 431q0 8 5 13q6 9 17 11q3 0 5 1q8 0 15 -5q53 -43 73 -86q5 -9 2 -20t-12 -15q-4 -2 -12 -2q-16 0 -23 14q-18 38 -59 68q-11 8 -11 21zM718 160q0 8 5 14q30 45 35 82q0 10 8 18 q7 6 15 5h5q9 -2 16 -10.5t7 -18.5q-9 -60 -45 -107q-7 -10 -21 -10q-8 0 -14 6q-11 7 -11 21z" />
<glyph unicode="t" horiz-adv-x="819" d="M86 979q0 11 8 19t19 8h102q11 0 19 -8t8 -19q0 -10 -8 -17.5t-19 -7.5h-102q-11 0 -19 7.5t-8 17.5zM260 154v6q0 10 8 18t19 8t18.5 -8t7.5 -18v-6q0 -42 27 -72q8 -8 8 -19t-8 -18q-9 -6 -18 -6q-14 0 -19 8q-43 46 -43 107zM260 264v103q0 10 8 18t19 8t18.5 -7.5 t7.5 -18.5v-103q0 -10 -7.5 -18t-18.5 -8t-19 8t-8 18zM260 471v104q0 10 8 17.5t19 7.5t18.5 -7.5t7.5 -17.5v-104q0 -11 -8 -19t-18 -8q-11 0 -19 8t-8 19zM260 678v104q0 10 8 18.5t19 8.5q10 0 18 -8t8 -19v-104q0 -10 -7.5 -17.5t-18.5 -7.5t-19 7.5t-8 17.5zM260 887 v102q0 11 8 19t19 8q10 0 18 -8t8 -19v-102q0 -11 -8 -19t-18 -8q-11 0 -19 8t-8 19zM260 1094v104q0 10 8 17.5t19 7.5t18.5 -7.5t7.5 -17.5v-104q0 -11 -8 -19t-18 -8q-11 0 -19 8.5t-8 18.5zM260 1300v105q0 11 8 19t19 8q10 0 18 -8t8 -19v-105q0 -10 -7.5 -17t-18.5 -7 t-19 7t-8 17zM332 979q0 11 8 19t18 8h103q10 0 18 -8t8 -19q0 -10 -7.5 -17.5t-18.5 -7.5h-103q-11 0 -18.5 7.5t-7.5 17.5zM387 25q0 10 8 17t19 7h4q10 0 17 -7.5t7 -18.5t-7 -18t-17 -7h-4q-10 0 -18.5 8t-8.5 19z" />
<glyph unicode="u" horiz-adv-x="1255" d="M170 391q0 10 8 18.5t19 8.5t17.5 -7.5t6.5 -19.5q7 -57 17 -92q7 -26 -17 -33h-6q-21 0 -27 17q-15 53 -18 108zM170 496v100q0 12 8 19.5t19 7.5t17.5 -7.5t6.5 -19.5v-100q0 -11 -7 -19t-17 -8q-11 0 -19 8.5t-8 18.5zM170 700v103q0 12 8 19t19 7q24 0 24 -26v-103 q0 -11 -7 -18.5t-17 -7.5q-11 0 -19 8t-8 18zM170 907v72q0 9 8.5 17t18.5 8t17 -8t7 -17v-72q0 -11 -7 -18.5t-17 -7.5q-11 0 -19 8t-8 18zM232 202q2 10 10 17q9 6 20 3.5t17 -11.5q33 -50 63 -72q8 -7 8 -18t-8 -19t-16 -8q-15 0 -19 6q-46 39 -71 82q-5 7 -5 15q0 2 1 5 zM386 54q-2 5 -1 10q0 5 2 10q5 11 14.5 14t18.5 -4q53 -22 92 -29q10 0 16.5 -9t3.5 -19q-3 -21 -24 -21h-6q-57 9 -103 33q-9 5 -13 15zM584 23v5q0 9 5 15q7 8 19 8q52 6 92 23q9 4 18.5 -1t14.5 -14q4 -10 -0.5 -19.5t-15.5 -12.5q-38 -16 -105 -27h-2q-9 0 -17.5 7 t-8.5 16zM784 121q42 28 68 67q18 18 37 7q18 -18 4 -39q-38 -48 -76 -76q-6 -6 -16 -6q-14 0 -21 10q-6 7 -6 16q0 12 10 21zM900 250q-2 4 -1 9q0 5 2 11q13 38 23 92q8 23 28 23q10 -1 16.5 -9.5t6.5 -19.5q-6 -59 -29 -106q-3 -17 -22 -17q-6 0 -11 5q-9 3 -13 12z M928 463v104q0 9 7 17t17 8t18.5 -8t8.5 -17v-104q0 -11 -8 -18t-19 -7q-24 0 -24 25zM928 670v102q0 9 7 17t17 8t18.5 -8t8.5 -17v-102q0 -12 -8 -19.5t-19 -7.5t-17.5 7.5t-6.5 19.5zM928 874v105q0 9 7 17t17 8t18.5 -8t8.5 -17v-105q0 -24 -27 -24q-24 0 -24 24z" />
<glyph unicode="v" horiz-adv-x="1191" d="M114 983q4 9 13 12q5 2 10 2q5 1 9 -1q10 -4 14 -13l41 -94q4 -9 -0.5 -18.5t-14.5 -14.5q-4 -2 -10 -2q-16 0 -24 14l-37 95q-2 6 -2 11q-1 5 1 9zM192 793q4 10 15 14q9 5 19.5 1t13.5 -13l41 -95q9 -21 -17 -34q-2 -2 -10 -2q-15 0 -23 14l-38 96q-3 5 -3 10q0 4 2 9z M272 584q-1 6 -1 11q0 17 16 21q8 5 17.5 1.5t14.5 -11.5l39 -96q5 -9 0.5 -19t-14.5 -14q-1 0 -3.5 -2t-4.5 -2q-16 0 -25 19zM352 397q-2 4 -2 9q0 4 2 10q4 10 13 14q10 3 19.5 -0.5t12.5 -13.5l41 -92q9 -24 -14 -37h-8q-18 0 -25 14zM432 228q4 10 12 12q9 4 19.5 0 t13.5 -13l41 -94q5 -9 1 -19.5t-13 -13.5q-6 -2 -10 -2q-18 0 -27 15l-37 94q-2 6 -2 11q0 6 2 10zM510 18q-2 6 -2 12q0 15 16 21q7 3 17 0h6q9 -5 14 -14.5t2 -18.5l-2 -2q-3 -11 -14 -14q-2 -2 -6 -2h-4h-5q-6 0 -6 2h-2q-2 2 -4 2q-4 4 -8 12zM554 114q-2 4 -2 8 q0 6 3 11l37 94q5 9 15.5 13t19.5 0q9 -3 13.5 -13t0.5 -20l-41 -94q-6 -15 -22 -15q-9 0 -11 2q-9 4 -13 14zM633 324l39 92q3 10 13 13.5t20 0.5t14.5 -13.5t1.5 -19.5l-41 -96q-7 -14 -23 -14h-10q-15 9 -15 26q0 5 1 11zM714 492q-1 4 -1 8q0 5 2 10l37 96q13 21 34 15 q21 -14 15 -37l-41 -92q-2 -6 -9 -12.5t-14 -6.5q-2 0 -6 2t-6 2q-8 5 -11 15zM793 700l38 95q3 9 13.5 13t19.5 -1q11 -4 15.5 -13.5t1.5 -19.5l-43 -96q-3 -14 -23 -14q-6 0 -10 2q-15 8 -15 21q0 6 3 13zM872 870q-2 5 -2 9.5t2 9.5l37 94q12 15 25 15q6 0 12 -3 q8 -3 12 -12q2 -4 2 -9t-2 -11l-38 -95q-6 -14 -25 -14q-8 0 -10 2q-9 4 -13 14z" />
<glyph unicode="w" horiz-adv-x="1763" d="M124 984q4 10 15 13q5 2 10 2q5 1 9 -1q10 -4 16 -13l39 -94q4 -10 -0.5 -20t-15.5 -15q0 -2 -9 -2q-14 0 -24 16l-39 95q-3 5 -3 10q0 4 2 9zM206 794q4 10 13 15q10 3 20 -0.5t13 -13.5l41 -95q3 -9 -1 -19.5t-13 -14.5h-11q-16 0 -22 14l-39 96q-2 5 -2 10q-1 4 1 8z M285 586q-2 4 -1.5 9t1.5 11q3 11 12 15q10 4 20 -0.5t15 -14.5l41 -96q4 -8 -1.5 -18t-15.5 -15l-3 -1q-3 -1 -7 -1q-11 0 -22 19zM365 397q-2 7 -2 12q0 15 16 23q10 3 20 -1t13 -15l41 -92q6 -25 -17 -35h-6q-21 0 -27 14zM444 207q-2 6 -2 12q0 16 15 23q10 3 20.5 -1 t14.5 -14l40 -94q3 -10 -1 -20t-15 -13q-2 -2 -8 -2q-16 0 -25 15zM524 16v2q-2 4 -2 9t2 9q4 10 13 15h2q-4 11 2 19l37 92q11 22 36 16q9 -5 13 -15.5t0 -19.5l-41 -94q-4 -11 -13 -14q3 -10 0 -20t-12 -13q-6 -2 -10 -2q-21 0 -27 16zM618 256l44 94q3 11 12.5 16t19.5 1 q23 -12 13 -35l-41 -94q-1 -7 -9 -12t-16 -5q-1 0 -3.5 1t-4.5 1q-10 3 -14 13q-2 6 -2 11t1 9zM698 446l41 97q4 9 15 12t20 0q8 -5 11 -15.5t-1 -19.5l-39 -94q-6 -16 -22 -16q-6 0 -10 4q-10 2 -14 12q-2 5 -2 12q0 4 1 8zM778 637l41 94q3 14 23 14q8 2 16.5 -2.5 t11.5 -11.5l39 -94q6 -11 1.5 -20.5t-15.5 -12.5q0 -4 -10 -4q-13 0 -23 16l-18 41l-17 -41q-6 -16 -26 -16q-4 0 -10 4q-15 5 -15 21q0 5 2 12zM901 520q-2 4 -2 8q0 6 3 12q5 10 16 15q22 7 32 -12l39 -97q5 -9 0.5 -19t-14.5 -13q-2 -4 -8 -4q-19 0 -25 16zM982 352 q4 10 13 15q10 4 20 -1t15 -16l37 -94q6 -9 1.5 -19.5t-13.5 -13.5q-1 0 -4 -1t-7 -1q-12 0 -22 17l-39 94q-3 6 -3 12zM1062 162q4 10 13 16q26 7 35 -16l41 -92q2 -7 -2 -19h2q9 -5 13.5 -14.5t0.5 -18.5l-2 -2q-10 -16 -22 -16q-9 0 -13 2q-9 3 -13 13.5t1 19.5 q-11 4 -14 14l-39 94q-3 5 -3 11q0 4 2 8zM1157 133l39 94q3 10 13 14t20 1q11 -5 15.5 -15t0.5 -20l-41 -94q-6 -15 -22 -15q-9 0 -11 2q-9 3 -13 13q-2 5 -2 11q0 4 1 9zM1238 304q-2 5 -1 10q0 5 2 10l37 92q9 23 35 16q9 -4 13 -15t1 -20l-41 -94q-3 -14 -22 -14h-11 q-9 5 -13 15zM1316 492q-2 4 -1 8q0 5 2 10l39 96q3 9 13.5 13.5t19.5 -1.5q12 -3 16.5 -13t-0.5 -19l-43 -92q-1 -7 -8 -13t-15 -6q-1 0 -4.5 1t-5.5 1q-9 5 -13 15zM1396 680q-2 5 -2 10t3 10l37 95q15 20 34 14q11 -5 15 -14.5t0 -18.5l-39 -96q-6 -14 -25 -14h-8 q-11 4 -15 14zM1477 891l39 94q7 15 21 15q6 0 13 -3q9 -3 13 -13q2 -5 2 -9.5t-2 -9.5l-41 -95q-3 -16 -23 -16q-4 0 -10 2q-15 8 -15 21q0 6 3 14z" />
<glyph unicode="x" horiz-adv-x="1167" d="M140 26q0 8 5 17l64 84q6 9 17 10.5t20 -4.5t10.5 -17t-4.5 -20l-64 -86q-8 -10 -22 -10q-10 0 -16 6q-10 6 -10 20zM174 958q-6 10 -6 19q0 12 12 20q7 4 15 5q3 0 5 -1q11 -2 17 -10l66 -86q11 -22 -7 -37q-6 -6 -16 -6q-14 0 -20 12zM266 194q-1 3 0 7q0 7 4 12l66 88 q4 9 16 10.5t21 -4.5q7 -7 9 -18.5t-3 -18.5l-62 -88q-12 -12 -24 -12q-2 0 -14 6q-11 6 -13 18zM301 788q-6 9 -6 17q0 10 10 18q11 7 21.5 6t15.5 -10l66 -86q6 -7 4 -19.5t-11 -19.5q-8 -4 -16 -4q-10 0 -20 10zM393 370q0 9 6 17l62 86q6 10 18 11.5t19 -7.5 q10 -4 12 -15.5t-6 -21.5l-62 -84q-6 -12 -22 -12q-2 0 -4.5 1t-6.5 2.5t-6 2.5q-10 7 -10 20zM422 635q2 12 12 16q8 7 18.5 5.5t18.5 -9.5l57 -82l58 82q20 20 39 4q9 -4 10.5 -16t-4.5 -21l-64 -84q-6 -12 -20 -12q-13 0 -17 4h-2q-6 -4 -16 -4q-14 0 -23 12l-63 84 q-4 7 -4 15v6zM559 477q20 20 37 -4l63 -86q16 -24 -6 -37q-12 -6 -16 -6q-14 0 -23 12l-61 84q-5 9 -5 17q0 14 11 20zM646 714q-1 4 -1 6q0 8 4 13l66 86q6 9 17 10t20 -6q18 -12 6 -35l-66 -88q-7 -10 -20 -10q-5 0 -17 4q-7 8 -9 20zM686 307q7 6 19 4.5t18 -10.5 l63 -88q6 -7 4 -18.5t-12 -18.5q-6 -6 -14 -6q-15 0 -23 12l-61 88q-5 6 -5 14q0 15 11 23zM771 889q0 8 5 16l66 86q6 8 16 10q3 0 5 1q8 0 16 -5q18 -14 4 -39l-64 -84q-9 -12 -20 -12q-13 0 -17 6q-11 7 -11 21zM805 96q-4 9 -4 17q0 12 10 20q7 5 16 5h5q12 -2 16 -11 l65 -84q4 -11 4 -19q0 -12 -10 -18q-6 -6 -16 -6q-16 0 -21 10z" />
<glyph unicode="y" horiz-adv-x="1204" d="M106 399q0 9 8 17t19 8q9 0 17 -7.5t8 -17.5q0 -48 16 -94q3 -11 -1.5 -20.5t-16.5 -12.5h-9q-19 0 -22 19q-19 63 -19 108zM106 502v104q0 12 7.5 19.5t19.5 7.5q9 0 17 -7.5t8 -19.5v-104q0 -9 -8 -17t-17 -8q-11 0 -19 7.5t-8 17.5zM106 711v102q0 12 7.5 19.5 t19.5 7.5q9 0 17 -8t8 -19v-102q0 -10 -8 -18.5t-17 -8.5q-12 0 -19.5 8t-7.5 19zM106 918v71q0 11 7.5 19t19.5 8q9 0 17 -8.5t8 -18.5v-71q0 -9 -8 -18t-17 -9q-11 0 -19 8.5t-8 18.5zM172 188q-6 10 -6 18q0 11 12 19q23 13 37 -8q30 -45 64 -72q19 -19 2 -36 q-11 -11 -21 -11q-8 0 -16 8q-39 31 -72 82zM293 -369q10 26 31 19q42 -10 98 -17q10 0 17 -6.5t7 -17.5q0 -10 -8.5 -18.5t-17.5 -8.5q-56 3 -109 19q-9 3 -15 12q-4 7 -4 13q0 3 1 5zM324 80q5 9 14 12.5t20 -2.5q52 -21 91 -29q23 -3 20 -30q-1 -9 -8 -15t-15 -6h-6 q-48 10 -106 33q-14 9 -14 22q0 7 4 15zM498 -389q-1 12 5 20.5t15 10.5q45 8 94 28q9 5 19.5 1t13.5 -13q10 -24 -12 -35q-49 -21 -105 -33h-4q-10 0 -17 6.5t-9 14.5zM522 29q0 11 7 19.5t16 8.5q53 6 96 23q9 4 17.5 -1t13.5 -16q7 -22 -13 -32q-53 -18 -110 -27h-2 q-9 0 -16 7.5t-9 17.5zM698 -281q48 39 70 68q6 8 17 8.5t20 -6.5q8 -6 8.5 -16.5t-6.5 -18.5q-47 -55 -78 -76q-2 0 -7.5 -3t-8.5 -3q-17 0 -21 11q-6 6 -6 14q0 15 12 22zM723 127q39 26 70 68q15 18 36 4q17 -17 2 -39q-27 -40 -77 -74q-4 -6 -15 -6q-15 0 -20 10 q-5 7 -5 16q0 12 9 21zM819 -152q-1 3 -1 7q0 6 3 12q26 53 35 92q2 11 10.5 16.5t20.5 4.5q9 -3 14.5 -12.5t3.5 -20.5q-12 -54 -39 -103q-3 -12 -20 -12q-11 0 -15 2q-9 3 -12 14zM840 276q17 36 24 95q2 9 10.5 15.5t18.5 6.5t17.5 -7.5t7.5 -16.5v-105q0 -12 -7 -19 t-18 -7q-10 0 -19 6q-2 -2 -8 -2q-8 0 -10 2q-10 3 -14 13q-3 6 -3 12q0 3 1 7zM866 57v103q0 10 8 18t19 8q10 0 17.5 -7.5t7.5 -18.5v-103q0 -12 -7 -19t-18 -7t-19 7t-8 19zM866 467v4v104v5v2q1 2 3 5t3 5q1 0 2.5 1t2.5 1q6 6 16 6q11 0 18 -10q4 -4 4 -6l3 -4v-5v-104 v-6q-3 -2 -3 -4t-2.5 -5.5t-3.5 -4.5q-1 0 -3 -1t-3 -1q-3 -3 -6 -3h-4q-6 0 -16 5q-11 7 -11 16zM866 674v4v104v4v2q1 1 2 3.5t2 3.5q3 9 13 12q1 0 3 1t3 1h4h4q6 -2 14 -10q4 -4 4 -8l3 -5v-4v-104q0 -2 -1.5 -6t-1.5 -6l-4 -4q0 -1 -1 -2.5t-1 -2.5q-1 0 -3 -1t-3 -1 q0 -2 -2 -2h-8h-4q-8 0 -12 4l-7 7q-2 0 -2 4q-2 2 -2 6zM866 881v6v102v4q2 9 9.5 16t17.5 7h4q1 0 3 -1t3 -1l8 -8q7 -7 7 -17v-102q0 -4 -3 -10q-3 -17 -22 -17h-8q-1 1 -3 2t-3 2q-9 5 -11 8q0 1 -1 4.5t-1 4.5z" />
<glyph unicode="z" horiz-adv-x="1134" d="M125 27q0 8 6 14l62 82q6 8 16.5 10t19.5 -4q18 -14 4 -35l-32 -43h28q10 0 17.5 -7.5t7.5 -16.5q0 -12 -7 -19.5t-18 -7.5h-73h-4q-11 0 -17 6q-2 0 -4 2q-6 6 -6 19zM125 979q0 9 9 18t18 9h77q10 0 17.5 -8.5t7.5 -18.5q0 -12 -7 -19.5t-18 -7.5h-77q-10 0 -18.5 8 t-8.5 19zM252 207l61 84q15 19 37 4q17 -17 6 -35l-63 -84q-7 -10 -21 -10q-4 0 -16 4q-10 10 -10 20q0 8 6 17zM305 27q0 9 8.5 16.5t18.5 7.5h102q12 0 19.5 -7.5t7.5 -16.5q0 -12 -7.5 -19.5t-19.5 -7.5h-102q-11 0 -19 7.5t-8 19.5zM305 979q0 9 8.5 18t18.5 9h102 q11 0 19 -8.5t8 -18.5q0 -12 -7.5 -19.5t-19.5 -7.5h-102q-11 0 -19 7.5t-8 19.5zM373 373l61 84q6 9 18 10.5t19 -6.5q17 -14 4 -37l-57 -80q-6 -10 -25 -10q-10 0 -14 4q-11 9 -11 20q0 7 5 15zM491 525q0 8 5 14l61 84q4 8 16 9.5t19 -3.5q9 -6 10.5 -18t-6.5 -19 l-57 -82q-7 -10 -21 -10q-12 0 -16 2q-11 10 -11 23zM512 27q0 9 8.5 16.5t18.5 7.5h102q12 0 19.5 -7.5t7.5 -16.5q0 -12 -7.5 -19.5t-19.5 -7.5h-102q-11 0 -19 7.5t-8 19.5zM512 979q0 9 8.5 18t18.5 9h102q11 0 19 -8.5t8 -18.5q0 -12 -7.5 -19.5t-19.5 -7.5h-102 q-11 0 -19 7.5t-8 19.5zM613 692q0 9 5 15l60 81q6 9 17 11t18 -4q21 -17 8 -37l-64 -84q-10 -10 -18 -10q-3 0 -8.5 3t-7.5 3q-10 7 -10 22zM719 27q0 9 7.5 16.5t16.5 7.5h103q12 0 19 -7.5t7 -16.5q0 -27 -26 -27h-103q-9 0 -16.5 7.5t-7.5 19.5zM719 979q0 9 7.5 18 t16.5 9h103q11 0 18.5 -8.5t7.5 -18.5q0 -27 -26 -27h-4q8 -15 0 -28l-62 -82q-11 -11 -22 -11q-8 0 -15 7q-17 14 -4 34l58 80h-54q-9 0 -16.5 7.5t-7.5 19.5z" />
<glyph unicode="{" horiz-adv-x="983" d="M115 618v3v2q0 10 7.5 18t18.5 8q40 4 58 6q12 3 22 -4.5t12 -19.5q0 -9 -2 -13q2 -4 2 -10q-1 -12 -10 -19t-20 -7h-4q-27 6 -58 6q-12 2 -19.5 10t-6.5 20zM291 596q3 11 14 16.5t23 1.5q55 -14 116 -51q9 -8 11.5 -20t-4.5 -23q-9 -12 -25 -12q-7 0 -16 6 q-46 30 -99 45q-12 3 -17.5 14t-2.5 23zM291 643q-3 12 2.5 23t17.5 14q53 15 99 45q11 7 23 5t18 -13q7 -9 4.5 -21t-13.5 -20q-55 -35 -114 -53h-9q-21 0 -28 20zM459 158q0 28 6 63q1 12 11 19.5t22 5.5q12 -1 19 -11t5 -22q-4 -40 -4 -55q0 -30 6 -54q2 -12 -5 -22.5 t-19 -11.5h-6q-11 0 -19.5 7t-9.5 17q-6 27 -6 64zM459 1081q0 34 6 64q1 12 12 19t23 5q27 -7 24 -34q-6 -24 -6 -54q0 -19 4 -55q3 -12 -4.5 -21.5t-19.5 -11.5q-2 -2 -4 -2q-10 0 -18.5 8t-10.5 19q-6 34 -6 63zM475 438q-5 11 0 22t17 17q10 4 21.5 -0.5t16.5 -15.5 q19 -49 19 -94q0 -25 -2 -37q-1 -12 -10 -19.5t-21 -7.5h-2q-12 2 -20 11.5t-7 21.5q2 10 2 31q0 39 -14 71zM475 778q-5 12 0 23q14 32 14 71q0 21 -2 31q-2 11 6.5 21.5t20.5 11.5q12 0 22 -7.5t11 -19.5q0 -6 1 -18.5t1 -18.5q0 -45 -19 -94q-9 -18 -28 -18q-6 0 -10 2 q-12 4 -17 16zM510 -5.5q2 12.5 12 19.5q9 7 21 5t20 -13q28 -41 76 -74q11 -6 13 -18t-5 -23q-6 -12 -24 -12q-11 0 -17 4q-54 37 -92 90q-6 9 -4 21.5zM510 1243.5q-2 12.5 4 22.5q38 53 92 90q11 6 23 3.5t18 -11.5q7 -11 5 -23t-13 -18q-49 -34 -76 -76q-9 -12 -24 -12 q-11 0 -17 6q-10 6 -12 18.5zM702 -135q3 12 14.5 17.5t22.5 0.5q46 -15 78 -18l31 -6q12 0 20 -9.5t6 -21.5q0 -12 -8.5 -20.5t-19.5 -8.5h-2q-37 0 -123 29q-12 5 -17.5 16t-1.5 21zM702 1372q-4 12 1.5 23t17.5 16q80 27 123 27q12 1 21 -7t9 -20q1 -12 -6.5 -21.5 t-19.5 -11.5q-11 0 -31 -4q-42 -8 -78 -20q-1 0 -4.5 -1t-5.5 -1q-20 0 -27 20z" />
<glyph unicode="|" horiz-adv-x="585" d="M248 53q0 13 9.5 22t21.5 9t21 -9t9 -22v-121q0 -12 -9 -21t-21 -9t-21.5 9t-9.5 21v121zM248 176v121q0 12 9.5 21.5t21.5 9.5t21 -9.5t9 -21.5v-121q0 -12 -9 -21.5t-21 -9.5t-21.5 9.5t-9.5 21.5zM248 418v123q0 12 9.5 20t21.5 8t21 -8t9 -20v-123q0 -12 -9 -21.5 t-21 -9.5t-21.5 9.5t-9.5 21.5zM248 662v120q0 12 9.5 21.5t21.5 9.5t21 -9.5t9 -21.5v-120q0 -12 -9 -21.5t-21 -9.5t-21.5 9.5t-9.5 21.5zM248 903v123q0 12 9.5 20.5t21.5 8.5t21 -8.5t9 -20.5v-123q0 -12 -9 -20.5t-21 -8.5t-21.5 8.5t-9.5 20.5zM248 1147v121 q0 12 9.5 21t21.5 9t21 -9t9 -21v-121q0 -12 -9 -21.5t-21 -9.5t-21.5 9.5t-9.5 21.5zM248 1389v122q0 12 9.5 20.5t21.5 8.5t21 -8.5t9 -20.5v-122q0 -12 -9 -20.5t-21 -8.5t-21.5 8.5t-9.5 20.5z" />
<glyph unicode="}" horiz-adv-x="983" d="M111 -172q-2 12 6 21.5t20 9.5l31 6q32 3 78 18q11 5 22.5 -0.5t14.5 -17.5q4 -10 -1.5 -21t-17.5 -16q-86 -29 -123 -29h-2q-11 0 -19.5 8.5t-8.5 20.5zM111 1411q0 12 9 20t21 7q43 0 123 -27q12 -5 17.5 -16t1.5 -23q-7 -20 -27 -20q-2 0 -5.5 1t-4.5 1q-36 12 -78 20 l-31 4q-12 2 -19.5 11.5t-6.5 21.5zM333 -86q2 12 13 18q48 33 76 74q8 11 20 13t21 -5q10 -7 12 -19.5t-4 -21.5q-38 -53 -92 -90q-6 -4 -17 -4q-18 0 -24 12q-7 11 -5 23zM333 1325q-2 12 5 23q6 9 18 11.5t23 -3.5q54 -37 92 -90q6 -10 4 -22.5t-12 -18.5q-6 -6 -17 -6 q-15 0 -24 12q-27 42 -76 76q-11 6 -13 18zM436 367q0 45 19 94q5 11 17 15.5t22 0.5q12 -6 16.5 -17.5t-0.5 -21.5q-14 -32 -14 -71q0 -21 2 -31q1 -12 -7 -21.5t-20 -11.5h-2q-12 0 -21 7.5t-10 19.5q-2 12 -2 37zM436 872q0 6 1 18.5t1 18.5q1 12 11 19.5t22 7.5 q12 -1 20.5 -11.5t6.5 -21.5q-2 -10 -2 -31q0 -39 14 -71q5 -10 0.5 -22.5t-16.5 -16.5q-4 -2 -11 -2q-19 0 -28 18q-19 49 -19 94zM461 104q6 24 6 54q0 15 -4 55q-2 12 5 22t19 11q12 2 22 -5.5t11 -19.5q6 -35 6 -63q0 -37 -6 -64q-1 -10 -9 -17t-19 -7h-7 q-12 1 -19 11.5t-5 22.5zM461 1135q-3 27 24 34q12 2 23 -5t12 -19q6 -30 6 -64q0 -29 -6 -63q-2 -11 -10 -19t-18 -8q-3 0 -5 2q-12 2 -19.5 11.5t-4.5 21.5q4 36 4 55q0 30 -6 54zM530 543q2 12 11 20q61 37 116 51q12 4 23 -1.5t14 -16.5q3 -12 -2.5 -23t-17.5 -14 q-53 -15 -99 -45q-9 -6 -16 -6q-15 0 -24 12q-7 11 -5 23zM530 696q-2 12 5 21q6 11 17.5 13t22.5 -5q46 -30 99 -45q12 -3 17.5 -14t2.5 -23q-7 -20 -28 -20h-9q-59 18 -114 53q-11 8 -13 20zM752 608q0 6 2 10q-2 4 -2 13q2 12 12 19.5t22 4.5q18 -2 58 -6q11 0 18.5 -8 t7.5 -18v-2v-3q1 -12 -6.5 -20t-19.5 -10q-31 0 -58 -6h-4q-11 0 -20 7t-10 19z" />
<glyph unicode="~" horiz-adv-x="942" d="M176 1315.5q-1 4.5 2 9.5l35 35q8 8 16 0q7 -10 -2 -19q-4 -4 -8 -7.5t-8 -8t-6 -6.5l-8 -8q-3 -6 -9 -6q-4 0 -8 4q-3 2 -4 6.5zM250 1372q-7 13 4 17q18 12 45 22q11 0 14 -8q5 -14 -8 -17q-21 -6 -41 -16l-4 -4q-10 0 -10 6zM338 1407q-3 12 10 12q4 2 17 2q5 0 16 -1 t16 -1q11 -4 11 -14t-13 -10h-2q-10 2 -28 2h-17q-4 -1 -7 2t-3 8zM430 1399q3 6 16 6q27 -13 43 -25q4 -2 5.5 -6.5t-2.5 -9.5q0 -4 -9 -4q-4 0 -8 2q-3 2 -39 20q-11 3 -6 17zM510.5 1341.5q-1.5 5.5 1.5 8.5q7 10 16 4q34 -17 41 -19q5 -2 7 -6.5t-1 -9.5q-4 -8 -10 -8 q-2 0 -4 2q-20 6 -45 20q-4 3 -5.5 8.5zM598 1313q4 13 14 10q10 -2 31 -2h14q10 0 13 -10q0 -4 -4 -8.5t-7 -4.5t-8.5 -1t-7.5 -1h-2q-13 0 -33 4q-10 0 -10 13zM692 1315q-3 10 8 16q21 7 39 19q9 9 17 -2q5 -11 -4 -17q-9 -7 -43 -22q-1 0 -2 -1t-2 -1q-9 0 -13 8z M770 1382q16 20 21 37q7 11 16 8q12 -8 6 -16q-1 -4 -25 -45q-2 -2 -10 -2q-4 0 -6 2q-11 7 -2 16z" />
<glyph unicode="&#xad;" horiz-adv-x="835" d="M135 717q0 9 5 15.5t10 6.5h59q16 0 16 -22q0 -21 -16 -21h-59q-5 0 -10 6.5t-5 14.5zM254 717q0 9 4.5 15.5t9.5 6.5h60q16 0 16 -22q0 -21 -16 -21h-60q-5 0 -9.5 6t-4.5 15zM373 717q0 9 4.5 15.5t9.5 6.5h59q17 0 17 -22q0 -21 -17 -21h-59q-5 0 -9.5 6t-4.5 15z" />
<glyph unicode="&#x2dc;" horiz-adv-x="1024" d="M219 1325l35 35q8 8 16 0q7 -10 -2 -19q-4 -4 -8 -7.5t-8 -8t-6 -6.5l-8 -8q-3 -6 -9 -6q-4 0 -8 4q-9 5 -2 16zM291 1372q-7 13 4 17q18 12 45 22q11 0 14 -8q5 -14 -8 -17q-21 -6 -41 -16l-4 -4q-10 0 -10 6zM379 1407q-3 12 10 12q4 2 17 2q5 0 16 -1t16 -1 q11 -4 11 -14t-13 -10h-2q-10 2 -28 2h-17q-4 -1 -7 2t-3 8zM471 1399q3 6 16 6q27 -13 43 -25q4 -2 5 -6.5t-3 -9.5q0 -4 -8 -4q-4 0 -8 2q-3 2 -39 20q-11 3 -6 17zM551.5 1341.5q-1.5 5.5 1.5 8.5q7 10 16 4q34 -17 41 -19q5 -2 7 -6.5t-1 -9.5q-4 -8 -10 -8q-2 0 -4 2 q-20 6 -45 20q-4 3 -5.5 8.5zM639 1313q4 13 14 10q10 -2 31 -2h14q10 0 13 -10q0 -4 -4 -8.5t-7 -4.5t-8.5 -1t-7.5 -1h-2q-13 0 -33 4q-10 0 -10 13zM733 1315q-3 10 8 16q21 7 39 19q9 9 17 -2q5 -11 -4 -17q-9 -7 -43 -22q-1 0 -2.5 -1t-2.5 -1q-8 0 -12 8zM811 1382 q15 18 20 37q7 11 17 8q12 -8 6 -16q-1 -4 -25 -45q-2 -2 -10 -2q-4 0 -6 2q-11 7 -2 16z" />
<glyph unicode="&#x2000;" horiz-adv-x="827" />
<glyph unicode="&#x2001;" horiz-adv-x="1655" />
<glyph unicode="&#x2002;" horiz-adv-x="827" />
<glyph unicode="&#x2003;" horiz-adv-x="1655" />
<glyph unicode="&#x2004;" horiz-adv-x="551" />
<glyph unicode="&#x2005;" horiz-adv-x="413" />
<glyph unicode="&#x2006;" horiz-adv-x="275" />
<glyph unicode="&#x2007;" horiz-adv-x="275" />
<glyph unicode="&#x2008;" horiz-adv-x="206" />
<glyph unicode="&#x2009;" horiz-adv-x="331" />
<glyph unicode="&#x200a;" horiz-adv-x="91" />
<glyph unicode="&#x2010;" horiz-adv-x="835" d="M135 717q0 9 5 15.5t10 6.5h59q16 0 16 -22q0 -21 -16 -21h-59q-5 0 -10 6.5t-5 14.5zM254 717q0 9 4.5 15.5t9.5 6.5h60q16 0 16 -22q0 -21 -16 -21h-60q-5 0 -9.5 6t-4.5 15zM373 717q0 9 4.5 15.5t9.5 6.5h59q17 0 17 -22q0 -21 -17 -21h-59q-5 0 -9.5 6t-4.5 15z" />
<glyph unicode="&#x2011;" horiz-adv-x="835" d="M135 717q0 9 5 15.5t10 6.5h59q16 0 16 -22q0 -21 -16 -21h-59q-5 0 -10 6.5t-5 14.5zM254 717q0 9 4.5 15.5t9.5 6.5h60q16 0 16 -22q0 -21 -16 -21h-60q-5 0 -9.5 6t-4.5 15zM373 717q0 9 4.5 15.5t9.5 6.5h59q17 0 17 -22q0 -21 -17 -21h-59q-5 0 -9.5 6t-4.5 15z" />
<glyph unicode="&#x2012;" horiz-adv-x="835" d="M135 717q0 9 5 15.5t10 6.5h59q16 0 16 -22q0 -21 -16 -21h-59q-5 0 -10 6.5t-5 14.5zM254 717q0 9 4.5 15.5t9.5 6.5h60q16 0 16 -22q0 -21 -16 -21h-60q-5 0 -9.5 6t-4.5 15zM373 717q0 9 4.5 15.5t9.5 6.5h59q17 0 17 -22q0 -21 -17 -21h-59q-5 0 -9.5 6t-4.5 15z" />
<glyph unicode="&#x2013;" horiz-adv-x="1531" d="M135 717q0 9 15.5 15.5t31.5 6.5h184q50 0 50 -22q0 -21 -50 -21h-184q-16 0 -31.5 6.5t-15.5 14.5zM507 717q0 9 14 15.5t29 6.5h188q49 0 49 -22q0 -21 -49 -21h-188q-15 0 -29 6t-14 15zM878 717q0 9 14 15.5t30 6.5h184q53 0 53 -22q0 -21 -53 -21h-184q-16 0 -30 6 t-14 15z" />
<glyph unicode="&#x2014;" horiz-adv-x="2555" d="M135 717q0 9 31 15.5t63 6.5h368q100 0 100 -22q0 -21 -100 -21h-368q-32 0 -63 6.5t-31 14.5zM878 717q0 9 28 15.5t59 6.5h375q100 0 100 -22q0 -21 -100 -21h-375q-31 0 -59 6t-28 15zM1621 717q0 9 28 15.5t59 6.5h369q106 0 106 -22q0 -21 -106 -21h-369 q-31 0 -59 6t-28 15z" />
<glyph unicode="&#x2018;" d="M158 1370v2v6v6v7q0 2 2 4q5 16 17.5 26.5t29.5 10.5q22 0 37.5 -16t15.5 -38q0 -20 -15.5 -34.5t-37.5 -14.5h-12q15 -34 49 -41q15 -8 10 -18q0 -5 -4 -9t-8 -4h-6q-78 20 -78 113z" />
<glyph unicode="&#x2019;" d="M121 1380q0 22 15.5 38t37.5 16q15 0 28.5 -11t18.5 -26q0 -4 2 -4v-21q0 -92 -78 -112h-6q-5 0 -8.5 4t-3.5 8q-5 10 10 18q36 8 47 41h-10q-22 0 -37.5 14.5t-15.5 34.5z" />
<glyph unicode="&#x201a;" />
<glyph unicode="&#x201c;" horiz-adv-x="839" d="M158 1300v13v6v2q0 93 78 113h6q4 0 8 -4t4 -9q5 -10 -10 -18q-34 -9 -49 -43q4 2 12 2q22 0 37.5 -14.5t15.5 -34.5q0 -22 -15.5 -37.5t-37.5 -15.5q-38 0 -47 36q-2 0 -2 4zM309 1300v5v8v8q0 93 78 113h6q5 0 9 -4t4 -9q5 -10 -11 -18q-34 -9 -49 -43q4 2 12 2 q22 0 38 -14.5t16 -34.5q0 -22 -16 -37.5t-38 -15.5q-38 0 -47 36q-2 0 -2 4z" />
<glyph unicode="&#x201d;" horiz-adv-x="839" d="M121 1382q0 22 15.5 38t37.5 16q15 0 28.5 -11t18.5 -26q0 -4 2 -4v-13v-6v-2q0 -92 -78 -112h-6q-5 0 -8.5 4t-3.5 8q-5 10 10 18q36 8 47 41h-10q-22 0 -37.5 14.5t-15.5 34.5zM272 1382q0 22 16 38t38 16q15 0 28.5 -11t18.5 -26q0 -4 2 -4v-13v-6v-2q0 -92 -78 -112 h-6q-5 0 -8.5 4t-3.5 8q-5 10 10 18q36 8 47 41h-10q-22 0 -38 14.5t-16 34.5z" />
<glyph unicode="&#x202f;" horiz-adv-x="331" />
<glyph unicode="&#x205f;" horiz-adv-x="413" />
<glyph unicode="&#x25fc;" horiz-adv-x="1003" d="M0 0v1004h1004v-1004h-1004z" />
</font>
</defs>
</svg>
