<?xml version="1.0" standalone="no"?>
<!DOCTYPE svg PUBLIC "-//W3C//DTD SVG 1.1//EN" "http://www.w3.org/Graphics/SVG/1.1/DTD/svg11.dtd" >
<svg xmlns="http://www.w3.org/2000/svg">
<metadata></metadata>
<defs>
<font id="quicksandlight_italic" horiz-adv-x="1024" >
<font-face units-per-em="2048" ascent="1638" descent="-410" />
<missing-glyph horiz-adv-x="614" />
<glyph horiz-adv-x="0" />
<glyph unicode="&#xd;" horiz-adv-x="2048" />
<glyph unicode=" "  horiz-adv-x="614" />
<glyph unicode="&#x09;" horiz-adv-x="614" />
<glyph unicode="&#xa0;" horiz-adv-x="614" />
<glyph unicode="!" horiz-adv-x="516" d="M193 35l10 49q4 25 28 22q11 -3 17.5 -11.5t5.5 -18.5l-10 -49q-2 -9 -9 -16t-16 -7q-4 0 -4 2q-11 2 -17 10.5t-5 18.5zM250 352l186 1065q7 24 31 21q10 -1 16.5 -10.5t3.5 -18.5l-186 -1067q-1 -9 -9.5 -14.5t-17.5 -5.5h-4q-11 2 -17 11t-3 19z" />
<glyph unicode="&#x22;" horiz-adv-x="839" d="M139 1298v13v6v2q0 93 78 113h6q5 0 9 -4t4 -9q5 -10 -11 -18q-34 -9 -49 -43q4 2 12 2q22 0 38 -14.5t16 -34.5q0 -22 -16 -38t-38 -16q-37 0 -47 37q-2 0 -2 4zM291 1298v5v8v8q0 93 78 113h6q4 0 8 -4t4 -9q5 -10 -10 -18q-34 -9 -49 -43q4 2 12 2q22 0 37.5 -14.5 t15.5 -34.5q0 -22 -15.5 -38t-37.5 -16q-37 0 -47 37q-2 0 -2 4z" />
<glyph unicode="&#x26;" horiz-adv-x="1425" d="M100 389q0 39 6 80q23 125 103.5 229.5t196.5 165.5q-72 78 -72 189q0 21 4 57q26 137 138 232.5t249 95.5q123 0 203 -80q80 -77 80 -199q0 -22 -7 -57q-1 -10 -10 -16.5t-18 -4.5q-10 1 -17.5 10.5t-5.5 18.5q4 18 4 49q0 99 -63.5 163t-165.5 64q-117 0 -216.5 -83.5 t-119.5 -200.5q-4 -32 -4 -49q0 -109 80 -176q9 -6 10 -17t-6 -20h-2q-1 -2 -8 -9q-115 -50 -197 -150t-104 -220q-6 -37 -6 -72q2 -144 95 -238t242 -94q170 -1 313.5 121t172.5 291q6 37 6 72q0 27 -2 39h-10q-23 2 -68 2q-214 0 -299 -101q-51 -60 -51 -141v-16 q1 -10 -5.5 -18.5t-17.5 -10.5h-4q-20 0 -24 22q-2 9 -2 23q0 98 63 174q105 121 340 121q22 0 72 -4h12q45 1 80.5 15.5t62 55t27.5 103.5v16q0 11 7.5 19.5t17.5 9.5q10 0 18 -8t8 -17v-20q3 -112 -71 -176q-43 -35 -105 -45q4 -28 4 -43q0 -26 -8 -80 q-34 -190 -190 -322.5t-347 -134.5q-166 0 -280 111q-109 112 -109 274z" />
<glyph unicode="'" horiz-adv-x="471" d="M139 1382q0 22 16 38t38 16q15 0 28.5 -11t18.5 -26q0 -4 2 -4v-21q0 -92 -78 -112h-6q-5 0 -9 4t-4 8q-5 10 11 18q36 8 47 41h-10q-22 0 -38 14.5t-16 34.5z" />
<glyph unicode="(" horiz-adv-x="880" d="M145 442q0 132 27 285q57 314 174 498q135 213 334 213q10 0 17.5 -7t7.5 -18t-7.5 -19t-17.5 -8q-169 0 -291 -190q-114 -181 -166 -479q-26 -159 -26 -275q0 -185 57 -284q63 -101 182 -101q11 0 19 -8t8 -18q0 -11 -8.5 -19t-18.5 -8h-2q-150 0 -223 129 q-66 110 -66 309z" />
<glyph unicode=")" horiz-adv-x="880" d="M123 31q0 10 8 18t19 8q165 0 288 191q113 175 166 479q29 158 29 274q0 181 -60 283t-180 102q-10 0 -18 8t-8 19q0 10 7.5 17.5t18.5 7.5q75 1 132.5 -32.5t92.5 -94.5q66 -110 66 -310q0 -123 -29 -284q-53 -311 -172 -498q-140 -215 -333 -215q-10 0 -18.5 8t-8.5 19 z" />
<glyph unicode="*" horiz-adv-x="880" d="M162 391q0 12 9.5 20.5t23.5 8.5h229l-137 162q-21 21 8 41q9 7 20 7t19 -7l135 -162l37 227q2 12 12 20.5t23 8.5q12 0 19 -8.5t5 -20.5l-37 -227l191 162q21 17 41 0q7 -22 -8 -41l-191 -162h230q12 0 19 -8.5t7 -20.5q-12 -31 -37 -31h-227l137 -159q6 -9 5 -21 t-9 -18q-17 -10 -27 -10q-14 0 -14 10l-139 160l-37 -230q-2 -12 -11.5 -21.5t-21.5 -9.5q-13 0 -20.5 9.5t-5.5 21.5l36 232l-186 -162q-17 -10 -27 -10q-2 0 -7 3t-5 7q-9 6 -8 18t12 21l185 159h-226q-13 0 -20 9.5t-2 21.5z" />
<glyph unicode="+" horiz-adv-x="1269" d="M135 707q7 34 43 34h432l84 435q3 15 15.5 24.5t29.5 9.5q13 0 21.5 -10t5.5 -24l-84 -435h434q13 0 22.5 -10t6.5 -24t-16.5 -25.5t-26.5 -11.5h-434l-84 -432q-3 -15 -16 -26t-25 -11q-17 0 -25.5 11t-5.5 26l84 432h-432q-17 0 -24.5 10.5t-4.5 26.5z" />
<glyph unicode="," horiz-adv-x="471" d="M111 57q0 22 15.5 38t37.5 16q15 0 28.5 -11t18.5 -26q0 -4 2 -4v-21q0 -92 -78 -112h-6q-5 0 -8.5 3.5t-3.5 8.5q-5 10 10 18q36 11 47 41h-10q-22 0 -37.5 14.5t-15.5 34.5z" />
<glyph unicode="-" horiz-adv-x="835" d="M135 715q0 9 6 15.5t15 6.5h467q18 0 18 -22q0 -19 -18 -19h-467q-21 0 -21 19z" />
<glyph unicode="." horiz-adv-x="471" d="M168 57q0 22 15.5 37t37.5 15q20 0 34.5 -15t14.5 -37q0 -20 -14.5 -35.5t-34.5 -15.5q-22 0 -37.5 15.5t-15.5 35.5z" />
<glyph unicode="/" d="M-6 37l579 1376q3 9 13.5 13.5t19.5 0.5q9 -3 14.5 -13t2.5 -19l-584 -1379q-3 -16 -23 -16q-8 0 -10 2q-22 11 -12 35z" />
<glyph unicode="0" horiz-adv-x="1454" d="M133 541q0 91 17 180q35 193 126 355.5t219 259t265 98.5q171 0 280 -158q103 -153 103 -383q0 -75 -17 -182q-35 -193 -126.5 -355.5t-220 -258.5t-263.5 -97h-2q-85 0 -156.5 41.5t-121.5 116.5q-103 150 -103 383zM184 541q0 -217 95 -355q93 -135 237 -135 q115 -1 232 87.5t206 244t121 338.5q15 89 15 172q0 212 -93 352q-93 135 -237 135h-4q-115 0 -232 -88.5t-204.5 -243.5t-118.5 -337q-17 -100 -17 -170z" />
<glyph unicode="1" horiz-adv-x="686" d="M68 1225q-10 24 10 37l319 170q2 2 4 2q3 0 5 2h6h2l2 -2q4 0 6 -2q2 0 4 -2l2 -3l4 -4v-2l2 -2q0 -4 2 -6v-6v-2l-243 -1382q-1 -9 -9.5 -15t-17.5 -6h-4q-11 2 -17.5 11.5t-3.5 19.5l234 1329l-273 -148q-4 -2 -12 -2q-16 0 -22 13z" />
<glyph unicode="2" horiz-adv-x="1208" d="M93 30.5q1 10.5 9 16.5l805 629q93 72 144 172.5t51 202.5q0 114 -62 200q-47 64 -118.5 97.5t-157.5 33.5q-160 0 -293 -106l-86 -66q-8 -6 -18.5 -5t-18.5 9q-6 9 -4.5 20t10.5 17l84 66q149 119 326 119q96 0 179.5 -39.5t137.5 -114.5q74 -103 74 -231 q0 -114 -57 -224.5t-160 -191.5l-743 -582h759q11 0 19 -8t8 -18t-8 -17.5t-19 -7.5h-827h-4h-4q-13 0 -21 10q-6 8 -5 18.5z" />
<glyph unicode="3" horiz-adv-x="1249" d="M149.5 157.5q1.5 11.5 10.5 18.5q9 8 20.5 8t18.5 -8q102 -123 276 -123q178 0 324 125q72 61 117 139t59 162q15 81 -2.5 159t-67.5 140q-102 123 -276 123q-17 0 -23 12l-2 2q-6 7 -4.5 19.5t10.5 19.5l490 426h-633q-11 0 -17.5 8.5t-3.5 18.5q1 10 10.5 18.5 t20.5 8.5h694q11 0 17.5 -8.5t3.5 -18.5q0 -4 -4 -12q-5 -9 -8 -11l-498 -432q169 -16 266 -137q57 -68 77.5 -155.5t2.5 -180.5q-15 -94 -66 -182.5t-133 -157.5q-168 -139 -362 -139q-95 0 -176 35t-137 104q-6 7 -4.5 18.5z" />
<glyph unicode="4" horiz-adv-x="1359" d="M98 325q0 11 8 19l1057 1077q2 0 2 2q1 0 2 1t2 1t2.5 1t2.5 1q4 0 4 3h6h2l2 -3q4 0 6 -2q1 0 2 -1t2 -1l2 -2l2 -2q2 -2 2 -4q0 -1 1 -2t1 -2v-4q3 -3 0 -6l2 -2l-186 -1047h123q11 0 18.5 -8t7.5 -18t-7.5 -17.5t-18.5 -7.5h-131l-49 -285q-7 -20 -27 -20h-4 q-11 2 -17.5 11.5t-3.5 19.5l48 274h-832h-2h-2q-10 0 -19 6q-8 7 -8 18zM186 352h785l170 973z" />
<glyph unicode="5" horiz-adv-x="1239" d="M127 161.5q1 10.5 10 18.5q8 7 18.5 6t18.5 -10q100 -121 275 -121q176 0 325 125q89 77 138 178t49 201q0 131 -78 221q-99 123 -273 123q-180 0 -325 -127q-23 -15 -39 4q-1 2 -3 6.5t-3 6.5v14l180 606q3 14 16 17q6 6 13 6h694q12 0 19 -8t7 -19q0 -27 -26 -27h-676 l-154 -518q142 92 297 92q93 0 176 -36t140 -105q88 -110 88 -256q0 -114 -53 -224.5t-152 -195.5q-162 -137 -360 -137h-3q-93 0 -174.5 36t-138.5 105q-7 8 -6 18.5z" />
<glyph unicode="6" horiz-adv-x="1314" d="M131 391v33v4q13 158 68 329t147 314q106 162 254 261t336 106q10 0 18.5 -8t8.5 -19q1 -10 -6.5 -17.5t-18.5 -9.5q-329 -11 -547 -342q-100 -147 -158 -348q80 108 199 173t248 65q172 0 283 -111q112 -109 112 -276q0 -24 -8 -82l-25 4l25 -4q-34 -192 -192 -325.5 t-351 -133.5q-171 0 -282 111q-111 108 -111 276zM182 391q0 -146 95.5 -241t246.5 -95q172 0 317.5 123t174.5 293q6 41 6 74q0 144 -95.5 239.5t-246.5 96.5h-2q-171 0 -316 -123.5t-174 -294.5q-6 -37 -6 -72z" />
<glyph unicode="7" horiz-adv-x="1202" d="M135.5 17q-2.5 11 3.5 20l801 1341h-754q-10 0 -18 8t-8 19t8 19t18 8h801l2 -2h4q4 0 4 -3h2l2 -2q1 -1 3 -2q1 0 1.5 -0.5t0.5 -1.5l4 -4q0 -2 2 -4v-6v-2v-2v-4q-2 -2 -2 -6v-2l-828 -1381q-6 -12 -20 -12q-11 0 -15 2q-9 6 -11.5 17z" />
<glyph unicode="8" horiz-adv-x="1290" d="M113 377q0 39 6 80q29 157 144 277t269 159q-32 16 -55 39q-67 67 -67 170q0 17 4 49q22 117 117 198.5t212 82.5q105 0 175 -70t67 -170q0 -33 -4 -49q-15 -83 -71.5 -151.5t-135.5 -102.5q85 -22 156 -90q108 -105 108 -271q0 -38 -6 -79q-34 -188 -188.5 -319.5 t-343.5 -131.5q-168 0 -279 108q-108 105 -108 271zM145 453l25 -4q-6 -37 -6 -72q0 -142 94 -235t242 -93q110 -1 214.5 54t176 149.5t90.5 204.5q6 37 6 71q0 142 -94 235t-242 93q-110 1 -214.5 -54t-176 -149t-90.5 -204zM438 1147l27 -4q-4 -14 -4 -41q0 -81 53.5 -134 t138.5 -53q96 -1 179 69t100 167q4 28 4 41q-2 82 -54.5 134.5t-138.5 53.5q-97 0 -180 -70.5t-98 -166.5z" />
<glyph unicode="9" horiz-adv-x="1314" d="M135 897q0 44 8 80q34 192 191.5 325.5t351.5 135.5q170 0 283 -113q110 -110 110 -276v-33v-4q-13 -159 -68 -330t-149 -313q-104 -160 -253 -259t-335 -106h-2q-22 0 -26 25q0 11 8 18.5t18 7.5q331 14 547 342q102 155 158 348q-79 -107 -198 -171.5t-249 -65.5 q-168 0 -284 113q-111 111 -111 276zM168 973l27 -4q-7 -44 -7 -72q0 -146 95.5 -241t246.5 -95q171 -1 316 121.5t176 294.5q6 37 6 72q0 146 -95.5 240.5t-246.5 94.5q-113 1 -219 -54.5t-179.5 -151.5t-92.5 -209z" />
<glyph unicode=":" horiz-adv-x="491" d="M186 72q4 29 29.5 50t56.5 21q30 0 48 -21t12 -50q-4 -31 -29.5 -52.5t-56.5 -21.5q-30 0 -48 22t-12 52zM377 1153q6 31 30.5 52.5t55.5 21.5t48 -21.5t11 -52.5q-5 -29 -30 -50.5t-56 -21.5q-29 0 -46.5 21.5t-12.5 50.5z" />
<glyph unicode=";" horiz-adv-x="491" d="M121 -92q0 10 7 20t17 11q69 17 93 73q-12 -6 -23 -6q-33 0 -54 25t-16 59q6 35 36.5 59.5t64.5 24.5q31 0 50 -18t19 -45l4 -2q0 -1 -1 -6t-2.5 -13.5t-2.5 -17.5q-4 -23 -12.5 -46t-26 -52t-49.5 -52.5t-75 -34.5h-9q-8 0 -14 6t-6 15zM367 1346q8 36 37 60t65 24 q34 0 54 -24.5t14 -59.5q-4 -35 -34 -60.5t-67 -25.5q-35 0 -54.5 25t-14.5 61z" />
<glyph unicode="&#x3c;" horiz-adv-x="1269" d="M123 717v4q0 1 1 3t1 3q0 2 2 4q0 1 1 2t1 2q1 1 2 3t2 3l803 686q9 7 22 6t21 -10t7 -22.5t-11 -20.5l-778 -665l540 -664q7 -11 6 -23t-10 -20q-8 -8 -20 -8q-14 0 -23 12l-561 686q-1 1 -1.5 2.5l-1 3t-1.5 3.5v2q-2 2 -2 8z" />
<glyph unicode="=" horiz-adv-x="1269" d="M162 393q0 11 8 18t20 7h713q11 0 20 -7.5t9 -17.5q0 -12 -9 -20t-20 -8h-713q-12 0 -20 8t-8 20zM238 821q0 12 8.5 19.5t19.5 7.5h711q14 0 22.5 -7.5t8.5 -19.5q0 -10 -8.5 -17t-22.5 -7h-711q-11 0 -19.5 7t-8.5 17z" />
<glyph unicode="&#x3e;" horiz-adv-x="1269" d="M187 37.5q1 12.5 10 21.5l780 666l-543 664q-8 9 -6 22.5t12 20.5q21 17 43 -5l559 -686q2 -2 5 -8l2 -2v-6v-6v-4q-2 -2 -2 -6q0 -1 -1.5 -2t-1.5 -2q-1 -1 -3 -3.5t-3 -3.5l-800 -686q-12 -8 -21 -8q-16 0 -22 12q-9 9 -8 21.5z" />
<glyph unicode="?" horiz-adv-x="1093" d="M84 1221q74 97 182 155t226 58q159 0 264 -105q102 -102 102 -258q0 -35 -6 -76q-31 -172 -170.5 -295.5t-312.5 -130.5l-45 -254q-3 -20 -25 -20h-4q-9 2 -15.5 10.5t-3.5 18.5l46 264q2 2 2 4q0 10 7 17t17 7q159 0 293 115t162 275q6 35 6 65q0 136 -88.5 224 t-228.5 89q-105 0 -203.5 -52.5t-165.5 -141.5q-6 -8 -16.5 -9t-18.5 5q-18 14 -4 35zM223 29l8 47q2 9 11 15t18 3q10 -1 16.5 -9t4.5 -17l-9 -48q-3 -20 -24 -20h-4q-10 1 -16.5 9.5t-4.5 19.5z" />
<glyph unicode="@" horiz-adv-x="2007" d="M178 717q26 145 106.5 278t193.5 229t256 153t288 57t268 -57t202 -153t112.5 -229t7.5 -278q-30 -178 -137 -328l-1 -2q-75 -98 -172 -133q-14 -5 -28 -8q-18 -6 -37 -6q-64 0 -88 47q-21 40 -14 84v2l26 151q-61 -81 -149 -129.5t-183 -48.5q-146 0 -228 108.5 t-56 262.5q28 154 149 262t267 108q147 0 229.5 -108t56.5 -262q-4 -12 -4 -21v-4l-57 -315h2q-7 -33 8 -58q16 -26 49 -26q17 0 27 2q79 17 149 104l13 15q101 145 127 303q31 181 -31 333.5t-198.5 241.5t-317.5 90q-182 -1 -350.5 -90t-284.5 -241.5t-148 -333.5 q-24 -135 6.5 -258t104 -212t187.5 -142t249 -54q72 0 168 21q10 3 18.5 -2.5t10.5 -16.5q0 -23 -25 -30q-97 -23 -180 -23q-146 0 -269 57t-202.5 153t-113 228.5t-7.5 278.5zM596 717q-23 -133 49 -226.5t195 -93.5t227 93.5t127 226.5q25 133 -46.5 226t-195.5 93 q-123 0 -227 -93t-129 -226z" />
<glyph unicode="A" horiz-adv-x="1323" d="M118 18q-1 3 -1 6q0 7 4 13l762 1382q8 13 21 13h5h4q16 0 23 -21l274 -1380v-5q0 -8 -4 -16q-6 -10 -16 -10h-4q-9 0 -17.5 5.5t-9.5 14.5l-72 365h-716l-205 -373q-9 -12 -23 -12q-10 0 -14 2q-9 6 -11 16zM399 436h678l-180 901z" />
<glyph unicode="B" horiz-adv-x="1216" d="M215 25l244 1382q1 10 9 16t19 4l2 3h324q130 0 211 -84q82 -82 82 -205q0 -20 -4 -60q-19 -96 -81 -175t-149 -122q95 -20 166 -88q95 -95 95 -237q0 -26 -7 -70q-29 -164 -163.5 -278.5t-298.5 -114.5h-418h-2h-4h-4q-10 1 -16.5 10.5t-4.5 18.5zM270 47h394 q143 0 264.5 103t146.5 247q6 30 6 62q-2 123 -81 201.5t-205 78.5h-402zM403 795h299h3q119 0 221 86q103 87 125 209q4 36 4 51q-2 102 -69 168.5t-173 66.5h-307z" />
<glyph unicode="C" horiz-adv-x="1472" d="M150 594q0 69 10 123q34 194 161 358t312 259t385 96q256 0 432 -158q9 -9 9 -20q0 -10 -7 -17q-6 -8 -17 -8.5t-20 6.5q-156 143 -397 143h-4q-184 0 -357 -88q-175 -90 -295 -245t-151 -336q-10 -62 -10 -113q0 -115 42 -216t116.5 -174t182 -115t232.5 -42 q242 0 453 146q9 6 20 3.5t17 -10.5q6 -9 3 -19.5t-12 -16.5q-226 -154 -481 -154q-269 0 -450 170q-174 171 -174 428z" />
<glyph unicode="D" horiz-adv-x="1472" d="M217 25l242 1382q7 20 26 20q0 3 2 3h275q258 0 436 -173q81 -81 125.5 -190t44.5 -233q0 -62 -12 -127q-26 -145 -105.5 -276.5t-191.5 -227t-254 -151.5t-287 -56h-274h-2h-4q-12 2 -18 11q-4 6 -4 12q0 3 1 6zM272 47h246q181 0 351 90t287.5 244.5t148.5 335.5 q10 49 10 117q0 153 -69 276.5t-196 194.5t-288 71h-254z" />
<glyph unicode="E" horiz-adv-x="1214" d="M215 31l244 1382q1 11 9.5 17t18.5 4q0 2 2 2h760q11 0 19 -8t8 -19t-8 -19t-19 -8h-743l-113 -639h645q11 0 19 -7t8 -17q0 -11 -8.5 -19t-18.5 -8h-653l-113 -639h734q10 0 18 -7.5t8 -18.5q0 -10 -7.5 -17.5t-18.5 -7.5h-760h-2h-2h-6q-9 2 -15.5 11t-5.5 18z" />
<glyph unicode="F" horiz-adv-x="1228" d="M215 27l244 1382q3 11 11 17t17 4l2 2h760q11 0 19 -8t8 -19t-8 -19t-19 -8h-741l-113 -639h645q11 0 18 -7t7 -17q0 -11 -7.5 -19t-17.5 -8h-655l-119 -670q-3 -20 -24 -20h-4q-10 1 -17.5 10.5t-5.5 18.5z" />
<glyph unicode="G" horiz-adv-x="1638" d="M150 598q0 58 12 123q34 194 160.5 358t311 259t384.5 96q255 0 434 -158q8 -8 8 -20q0 -11 -6 -17q-20 -19 -37 -2q-159 143 -399 143h-4q-184 0 -356 -88q-175 -90 -294.5 -245t-150.5 -336q-10 -46 -10 -113q0 -115 42 -216t116.5 -174t181 -115t231.5 -42 q237 0 447 142l82 466h-424q-11 0 -18 7.5t-7 17.5q0 11 7.5 19t17.5 8h450h2h6q10 -1 17.5 -10.5t5.5 -20.5l-90 -506q0 -2 -4 -10q-4 -7 -9 -10q-226 -154 -483 -154q-133 0 -248 44.5t-200 125.5q-176 173 -176 428z" />
<glyph unicode="H" horiz-adv-x="1556" d="M215 29l244 1382q1 11 10 17q7 5 14 4h4q10 -1 17.5 -10.5t5.5 -20.5l-117 -660h809l4 -2l119 672q1 11 11 17q7 5 15 4h5q10 0 16 -10q4 -7 4 -16v-5l-243 -1381q-3 -22 -27 -22h-4q-24 7 -21 31l117 659h-815l-117 -668q-3 -22 -26 -22h-4q-21 6 -21 26v5z" />
<glyph unicode="I" horiz-adv-x="624" d="M229 29l244 1382q1 11 11 17q7 5 14 4h4q10 -1 17 -10.5t5 -20.5l-243 -1381q-1 -10 -9 -16t-18 -6h-4q-21 6 -21 26v5z" />
<glyph unicode="J" horiz-adv-x="1216" d="M88 341q0 8 6 15q7 10 17 11t18 -5.5t10 -17.5q19 -129 114 -210t236 -81h4q114 0 221 57q110 57 185.5 156.5t95.5 216.5l164 930q1 10 11 17q7 4 15 4h5q10 -1 16 -10q4 -8 4 -16v-5l-163 -930q-35 -196 -197.5 -333.5t-360.5 -139.5h-2q-158 0 -268 94 q-131 113 -131 247z" />
<glyph unicode="K" horiz-adv-x="1464" d="M215 33l244 1382q6 21 25 21h5q11 -2 17.5 -11.5t3.5 -19.5l-162 -920l1110 945q8 6 17 6h3q11 -1 17 -9q7 -8 7 -18q0 -11 -9 -18l-694 -590l491 -758q5 -9 3 -20t-11 -17q-8 -4 -14 -4q-14 0 -23 12l-487 752l-416 -352l-6 -6l-70 -383q-3 -23 -24 -23h-4q-26 8 -23 31 z" />
<glyph unicode="L" horiz-adv-x="1267" d="M215 35l244 1382q1 11 10 17q7 5 15 4h5q10 -1 16.5 -10.5t4.5 -20.5l-238 -1352h734q11 0 18.5 -7t7.5 -17q0 -11 -8 -19t-18 -8h-760h-2h-2h-4q-26 8 -23 31z" />
<glyph unicode="M" horiz-adv-x="1777" d="M215 27l244 1382q7 21 26 21h4q17 0 23 -13l414 -762l686 766q9 9 22 9h6q10 0 16 -10q5 -7 5 -16v-5l-244 -1381q-3 -22 -24 -22h-7q-23 7 -20 31l229 1298l-651 -727q-8 -8 -20 -8h-2h-4q-17 0 -23 12l-395 729l-234 -1313q-3 -22 -24 -22h-4q-26 8 -23 31z" />
<glyph unicode="N" horiz-adv-x="1617" d="M217 35l242 1374q0 2 2 4q0 14 12 23q5 3 11 3q4 1 9 -1q11 -4 15 -13l717 -1319l229 1303q7 24 31 21q11 0 17 -10q4 -6 4 -13q0 -3 -1 -6l-241 -1374q-1 -10 -8.5 -16.5t-16.5 -6.5h-6q-12 3 -19 14q-1 1 -2 3.5t-2 3.5l-712 1310l-232 -1308q-3 -23 -24 -23h-4 q-12 3 -18 12q-4 6 -4 13q0 3 1 6z" />
<glyph unicode="O" horiz-adv-x="1740" d="M150 588q0 64 12 131q26 146 102 278t182 227t240.5 151.5t271.5 56.5q123 0 228 -44.5t180 -125.5q76 -79 117 -186.5t41 -231.5q0 -71 -11 -133q-27 -145 -103 -276.5t-182 -227t-240.5 -152t-272.5 -57.5q-122 0 -227 44.5t-181 125.5q-76 79 -116.5 187t-40.5 233z M201 588q1 -153 65.5 -275.5t182 -192.5t266.5 -71q169 0 329.5 90t273 244.5t144.5 335.5q11 79 11 125q0 152 -65 274t-183 191.5t-267 70.5h-2q-168 0 -328.5 -89.5t-272 -244t-142.5 -335.5q-12 -65 -12 -123z" />
<glyph unicode="P" horiz-adv-x="1193" d="M217 35l244 1380q2 9 8.5 15.5t15.5 5.5l2 2h418q144 0 244 -97q94 -94 94 -237q0 -32 -6 -70q-29 -164 -164 -278.5t-299 -114.5h-399l-107 -616q-7 -21 -26 -21h-4q-12 2 -18 12q-4 6 -4 13q0 3 1 6zM385 692h389q143 0 265 103t147 247q6 34 6 62q-2 123 -81.5 201.5 t-205.5 78.5h-397z" />
<glyph unicode="Q" horiz-adv-x="1728" d="M205 723q34 198 155.5 366.5t297 266.5t362.5 98q139 0 255.5 -58t191 -156t105.5 -234q17 -73 17 -151q0 -64 -12 -132q-39 -220 -189 -401.5t-354 -268.5l-323 -137q118 0 202 -55q169 -115 314 -115q149 0 305 115q9 5 21 3t18 -9q7 -23 -12 -39q-176 -121 -340 -121 q-161 0 -340 119q-75 51 -179 51q-102 0 -202 -45l-21 -6q-17 -10 -26 2q-8 3 -11 12q-2 10 3.5 22t15.5 15l319 135h-16q-186 0 -326.5 97t-202.5 263q-40 108 -40 228q0 66 12 135zM256 723q-11 -63 -11 -124q0 -112 38 -213q58 -155 188 -245t301 -90t332.5 90 t274.5 244.5t147 337.5q10 62 10 121q0 74 -16 144q-28 125 -97.5 215t-177 143t-235.5 53q-129 0 -255.5 -53t-227.5 -143t-173.5 -215.5t-97.5 -264.5z" />
<glyph unicode="R" horiz-adv-x="1280" d="M186 33l244 1380q1 10 9.5 16.5t17.5 6.5h2h415q147 0 244 -97q96 -93 96 -237q0 -32 -6 -70q-25 -134 -123 -239t-229 -140q21 -9 47 -22q158 -98 158 -262q0 -29 -6 -64q-15 -85 -15 -135q0 -58 17 -86q6 -8 14 -8h4q9 3 18.5 -3t12.5 -16q3 -9 -1.5 -19t-14.5 -13 l-6 -1q-7 -1 -13 -1q-34 0 -55 30q-27 38 -27 117q0 54 15 143q4 20 4 56q0 108 -82 180q-55 51 -144 78q-14 5 -28 9l-13 3h-395l-108 -616q-4 -21 -25 -21h-6q-11 0 -17 10q-5 7 -4 16v5zM354 690h389q145 0 267 103t147 247q4 23 4 62q0 123 -79.5 201.5t-207.5 78.5 h-397z" />
<glyph unicode="S" horiz-adv-x="1366" d="M141 203q-7 7 -7 15q0 9 9 18q16 16 33 4q82 -81 202 -138t255 -57q198 0 352 100q73 46 119.5 107.5t58.5 128.5q3 20 3 39q0 105 -95 178q-111 82 -323 121l-5 2q-212 41 -313 119q-103 77 -103 187q0 23 5 48q18 99 97.5 181.5t197 129t245.5 46.5q65 0 125 -14 t113.5 -42t88.5 -51t83 -59q8 -4 8 -16q0 -9 -6 -15q-18 -18 -35 -8q-65 49 -109 77.5t-120.5 55t-155.5 26.5q-178 0 -323 -94q-141 -91 -162 -217q-3 -20 -4 -38q0 -94 86 -158q98 -73 299 -113l4 -2q224 -43 340 -129q109 -79 109 -199q0 -26 -5 -55 q-31 -162 -201 -272.5t-382 -110.5q-145 0 -269 60t-215 145z" />
<glyph unicode="T" horiz-adv-x="1327" d="M102 1401q0 11 7.5 18.5t17.5 7.5h999q10 0 17.5 -7.5t7.5 -18.5t-7.5 -19t-17.5 -8h-477l-239 -1360q-7 -20 -27 -20h-4q-11 2 -17.5 11.5t-3.5 19.5l238 1349h-469q-10 0 -17.5 8t-7.5 19z" />
<glyph unicode="U" horiz-adv-x="1667" d="M215 473q0 56 8 100l148 834q2 11 11 17q8 6 16 6h3q10 -3 16 -12t5 -19l-148 -834q-8 -41 -8 -92q2 -184 122.5 -304.5t311.5 -121.5q217 0 399.5 155t219.5 371l147 834q0 9 10 17q8 6 16 6h5q21 -6 21 -26v-5l-148 -834q-27 -155 -126 -286t-243.5 -207t-300.5 -76 q-213 0 -350 137q-135 135 -135 340z" />
<glyph unicode="V" horiz-adv-x="1536" d="M117 1403q-1 3 -1 5q0 8 5 16q6 10 16 10q4 1 7 1q6 1 12 -3q9 -6 12 -17l324 -1321l792 1329q6 9 17 12q4 1 7 1q7 0 13 -4q9 -6 11 -16q1 -3 1 -6q0 -7 -4 -13l-825 -1383l-6 -6l-2 -2q-1 -1 -4 -2t-5 -2h-6h-8l-2 2q-2 0 -2 2h-2l-6 6q-4 4 -4 8z" />
<glyph unicode="W" horiz-adv-x="2256" d="M125 1401q-1 3 -1 6q0 9 4 15q6 10 15 10q4 1 7 1l13 -3q10 -6 13 -17l324 -1321l571 959q9 16 27 12q21 3 28 -19l232 -952l794 1329q6 9 16 12q4 1 6 1q7 0 13 -4q9 -6 11 -16q1 -3 1 -6q0 -7 -4 -13l-825 -1383l-6 -6v-2q-2 -1 -5 -2t-5 -2h-6h-7q-2 2 -4 2t-2 2h-2 q-4 4 -4 6h-2q-4 4 -4 8l-236 959l-575 -965l-6 -6l-2 -2q-1 -1 -4 -2t-4 -2h-7h-2h-6l-2 2q-2 0 -4 2l-6 6h-2q0 4 -4 8z" />
<glyph unicode="X" horiz-adv-x="1478" d="M152 21q0 11 8 18l612 678l-373 674q-6 9 -2 19t13 15q6 4 12 4q4 1 7 -1q10 -4 15 -13l365 -659l604 665q7 9 17 9q9 0 20 -7q8 -7 8 -18t-8 -19l-614 -677l374 -674q6 -9 2.5 -20t-12.5 -17q-4 -2 -12 -2q-17 0 -23 12l-366 660l-602 -664q-5 -8 -19 -8q-9 0 -18 6 q-8 8 -8 19z" />
<glyph unicode="Y" horiz-adv-x="1236" d="M116 1410q4 10 13 15q6 4 13 4q3 0 7 -1q11 -3 15 -13l368 -663l609 669q7 7 19 7q0 1 1 1q11 0 17 -6q8 -8 8 -20q0 -11 -6 -17l-627 -692h-2l-119 -678q-3 -20 -24 -20h-7q-9 2 -15 11.5t-5 19.5l119 675l-381 689q-4 6 -4 12q0 3 1 7z" />
<glyph unicode="Z" horiz-adv-x="1366" d="M145 18v7v4q0 4 2 6l3 4l2 4l1214 1337h-952q-10 0 -17.5 8t-7.5 19t7.5 19t17.5 8h1009q4 0 4 -2h7l4 -2q3 -3 4 -3v-2l4 -4q0 -1 1 -2t1 -2v-4q2 -2 2 -6v-4q0 -2 -2 -4q0 -1 -1 -3t-1 -3l-2 -2l-1215 -1340h953q10 0 17 -7.5t7 -18.5t-7 -18t-17 -7h-1012q-6 0 -8 2 q-2 0 -4 2q-1 0 -2 1t-2 1l-4 4l-3 4q0 4 -2 4z" />
<glyph unicode="[" horiz-adv-x="880" d="M205 -213l282 1593q3 22 21.5 38t40.5 16h475q16 0 25 -7.5t8 -21.5q-4 -21 -41 -21h-477l-283 -1601h477q36 0 33 -27q-4 -22 -41 -22h-475q-22 0 -35 15.5t-10 37.5z" />
<glyph unicode="\" d="M23 1397q-3 9 2 19.5t14 13.5q9 4 19.5 -1t13.5 -14l579 -1376q10 -24 -12 -35q-2 -2 -10 -2q-20 0 -23 16z" />
<glyph unicode="]" horiz-adv-x="880" d="M115 -238q4 21 41 21h477l282 1601h-477q-35 0 -32 27q5 23 40 23h476q22 0 35 -16t10 -38l-283 -1593q-3 -22 -21 -37.5t-40 -15.5h-476q-35 0 -32 28z" />
<glyph unicode="_" horiz-adv-x="1228" d="M-43 -293q6 35 51 35h684q20 0 31 -8.5t8 -26.5q-8 -35 -53 -35h-684q-20 0 -30.5 8.5t-6.5 26.5z" />
<glyph unicode="`" d="M340 1450q1 1 3 11t9 15t25 5q33 0 57 -37l127 -191q8 -12 8 -22q0 -8 -2.5 -9t-11.5 3q-4 2 -10 4t-9.5 3t-8 4t-9.5 7.5t-12 11.5l-146 158q-26 26 -20 37z" />
<glyph unicode="a" horiz-adv-x="1267" d="M82 414q0 50 8 94q37 204 197.5 347.5t355.5 143.5h8q168 0 277 -118q61 -64 88 -156l47 254q3 11 11 17q6 4 12 4q3 0 6 -1q10 -1 16 -9q4 -6 5 -14q0 -3 -1 -5l-84 -473l-82 -471q-4 -21 -24 -21h-4q-11 2 -17.5 10.5t-3.5 18.5l41 237q-79 -120 -203 -193.5 t-260 -74.5q-174 0 -282 121q-111 114 -111 289zM133 414q2 -157 96.5 -257t245.5 -100h4q113 0 219 59q108 60 184 164.5t97 227.5q6 44 6 84q0 156 -95 256t-247 100h-2q-172 0 -320 -132.5t-180 -317.5q-8 -39 -8 -84z" />
<glyph unicode="b" horiz-adv-x="1351" d="M195 29l81 475l164 909q6 21 26 21h5q11 -2 17.5 -10.5t3.5 -18.5l-121 -674q84 123 210.5 197.5t264.5 75.5q178 0 295 -123q114 -114 114 -293q0 -32 -8 -94l-26 6l26 -6q-24 -134 -107.5 -247.5t-206 -180.5t-255.5 -68q-178 0 -293 121q-65 65 -96 157l-45 -256 q-3 -20 -25 -20h-4q-11 2 -17 10q-4 6 -4 12q0 4 1 7zM322 414q2 -157 100.5 -260t255.5 -103h4q115 0 225 60q112 61 190 166t99 227q6 44 6 84q0 156 -99.5 258t-256.5 102h-2q-179 0 -329.5 -132.5t-184.5 -321.5q-8 -36 -8 -80z" />
<glyph unicode="c" horiz-adv-x="1169" d="M119 418q0 40 6 86q25 136 113.5 250t217.5 179.5t269 65.5h9q171 0 294 -110q9 -6 9 -18q0 -10 -7 -17q-8 -8 -18.5 -8.5t-18.5 6.5q-111 96 -268 96h-4q-125 0 -242 -60q-119 -61 -200.5 -166t-102.5 -228q-6 -37 -6 -76q0 -160 108.5 -264.5t278.5 -104.5 q162 0 307 98q9 6 20 4t17 -10q6 -9 3.5 -20t-11.5 -17q-156 -108 -336 -108q-191 0 -315 121q-123 120 -123 301z" />
<glyph unicode="d" horiz-adv-x="1351" d="M123 412q0 30 8 92q37 207 204 352.5t370 147.5q175 0 292 -123q67 -64 95 -158l127 690q3 21 24 21h6q11 -2 17 -10q5 -6 4 -14v-5l-250 -1389q-3 -20 -25 -20h-6q-10 1 -16 9.5t-4 19.5l41 241q-79 -122 -207 -196.5t-268 -75.5q-179 0 -297 121q-115 118 -115 297z M176 412q0 -158 100.5 -261.5t258.5 -103.5h3q176 0 328 134q152 135 187 323q8 36 8 82q-2 158 -100.5 260t-255.5 102h-4q-117 0 -227 -60q-112 -60 -191 -165t-101 -229q-6 -41 -6 -82z" />
<glyph unicode="e" horiz-adv-x="1247" d="M119 416q0 51 8 90q37 206 202.5 350.5t364.5 144.5h9q172 0 284 -118q115 -115 115 -295q0 -38 -2 -56q0 -1 -1 -4t-1 -4q-7 -18 -25 -18h-893q-2 -4 -2 -10q-8 -33 -8 -80q0 -158 99.5 -260.5t258.5 -102.5q111 0 217.5 55t182.5 150q6 8 17 9t20 -5q8 -8 9 -18.5 t-5 -18.5q-85 -103 -201 -163.5t-240 -61.5q-180 0 -295 121q-114 114 -114 295zM193 557h856q2 10 2 31q0 158 -100 260t-257 102h-3q-161 0 -303 -112q-144 -114 -195 -281z" />
<glyph unicode="f" horiz-adv-x="741" d="M146 1002q9 8 20 8h164l24 135q27 152 101 223q71 66 200 66q11 0 17.5 -7.5t5.5 -17.5q-3 -11 -12 -19t-19 -8q-108 0 -160 -49q-57 -53 -79 -188l-25 -135h172q11 0 17 -8.5t3 -18.5q-2 -11 -11 -19t-19 -8h-172l-164 -929q-1 -10 -10.5 -18.5t-20.5 -8.5q-10 0 -16 8 t-4 19l164 929h-164q-10 0 -18 8q-5 6 -5 15q0 13 11 23z" />
<glyph unicode="g" horiz-adv-x="1351" d="M125 410q0 50 8 94q24 134 106 248t201 181t248 68q174 0 285 -120q64 -67 92 -156l45 254q2 11 11.5 17t19.5 3q10 -1 16 -9q5 -6 5 -14q0 -2 -1 -5l-84 -475v-2l-80 -443q-23 -127 -104 -235t-199.5 -171t-247.5 -63q-110 0 -198 49q-9 5 -12.5 15.5t2.5 19.5 q4 9 14.5 12t19.5 -2q81 -43 174 -43q175 0 322 125t178 301l37 209q-81 -122 -204 -195t-259 -73h-8q-159 0 -276 117q-111 117 -111 284v9zM176 410q0 -156 96.5 -257.5t247.5 -101.5h3q173 0 321 132q148 133 182 321q6 44 6 84q0 156 -96.5 258t-247.5 102h-2 q-174 0 -322 -132.5t-180 -321.5q-8 -39 -8 -84z" />
<glyph unicode="h" horiz-adv-x="1255" d="M193 27l102 575l141 807q2 9 12 15q8 6 16 6h3q10 -1 16 -10.5t4 -20.5l-104 -598q69 93 171 148t214 55q151 0 250 -99q96 -93 96 -241q0 -34 -6 -72l-102 -574q-3 -22 -25 -22h-6q-10 1 -16.5 10.5t-4.5 20.5l103 575q6 30 6 62q-2 125 -83.5 206t-211.5 82 q-148 0 -272.5 -105.5t-149.5 -254.5l-102 -574v-4q-1 -1 -2 -3t-2 -3q0 -2 -2 -2q0 -4 -5 -4l-2 -2q-2 -2 -6 -2q-2 -2 -4 -2h-2h-6q-10 0 -16 10q-5 7 -5 16q0 2 1 5z" />
<glyph unicode="i" horiz-adv-x="575" d="M195 31l165 954q3 9 12.5 15.5t18.5 3.5q11 -2 17.5 -10.5t3.5 -18.5l-166 -955q-1 -7 -9 -13.5t-16 -6.5h-6q-20 7 -20 26v5zM408 1243l10 49q2 10 10 16q7 6 18 5h3q9 -2 15 -11.5t5 -19.5l-10 -49q-1 -9 -8.5 -15t-16.5 -6h-6q-9 2 -15 10.5t-5 20.5z" />
<glyph unicode="j" horiz-adv-x="509" d="M-10 -375q0 11 8 20t18 9h3q39 0 75 30q37 31 45 72l215 1227q3 10 12 16.5t17 4.5q10 -1 17.5 -10.5t5.5 -20.5l-220 -1223q-10 -61 -60 -104t-110 -43q-11 0 -18.5 6.5t-7.5 15.5zM406 1241l10 45q0 10 10 18q7 5 15 5h5q8 -2 14 -11t5 -18l-10 -49q0 -9 -7.5 -15 t-15.5 -6h-8q-18 4 -18 25v6z" />
<glyph unicode="k" horiz-adv-x="1146" d="M193 37l243 1382q2 9 11 15q8 6 16 6h2q10 -1 17 -10.5t5 -20.5l-186 -1055l772 658q8 7 18.5 6.5t18.5 -8.5q7 -8 7 -19q0 -12 -9 -18l-494 -420l328 -506q6 -9 4 -20t-10 -17q-12 -4 -14 -4q-17 0 -23 12l-326 502l-278 -237q-4 -4 -8 -4l-43 -250q-1 -10 -9.5 -16.5 t-17.5 -6.5h-4q-10 0 -16 10q-5 7 -5 16q0 2 1 5z" />
<glyph unicode="l" horiz-adv-x="509" d="M209 29l244 1382q2 9 10 15q7 6 15 6h3q10 -1 17.5 -10.5t5.5 -20.5l-244 -1381q-1 -10 -9 -16t-18 -6h-4q-11 2 -17 12q-4 6 -4 12q0 4 1 7z" />
<glyph unicode="m" horiz-adv-x="1947" d="M193 31l102 573v2l65 375q6 20 26 20h5q10 -1 16.5 -10t4.5 -20l-31 -168q69 90 171 144t212 54q149 0 248 -96q66 -73 86 -162q63 114 177.5 186t242.5 72q146 0 245 -96q97 -97 97 -239q0 -26 -7 -70l-100 -576q-1 -9 -9.5 -14.5t-17.5 -5.5h-4q-10 1 -16 10.5t-4 20.5 l100 573q6 34 6 62q0 123 -80.5 203t-209.5 81q-145 0 -267.5 -102t-150.5 -246q0 -4 -2 -6l-99 -576q-3 -14 -18 -18q-2 -2 -4 -2h-2h-6q-10 1 -16.5 10.5t-4.5 20.5l99 573q2 2 2 6q4 18 4 56q0 124 -79.5 203.5t-209.5 80.5q-147 0 -269.5 -103t-148.5 -249l-102 -578 q0 -4 -4 -8v-2q-4 -4 -7 -4l-2 -2q-2 -2 -6 -2q0 -2 -4 -2h-2h-4q-10 1 -17 10.5t-5 20.5z" />
<glyph unicode="n" horiz-adv-x="1255" d="M193 27l102 577v2l65 375q0 10 10 16q7 4 16 5q3 0 5 -1q9 -2 15.5 -11t5.5 -19l-31 -168q69 90 171.5 144t215.5 54q143 0 246 -96q94 -94 94 -241q0 -30 -6 -68l-98 -580q-1 -9 -10 -14.5t-19 -5.5h-4q-10 1 -16.5 10.5t-4.5 20.5l103 577q6 30 6 60q0 124 -81.5 204 t-209.5 82q-149 0 -273.5 -104t-150.5 -250l-100 -580q0 -4 -4 -8q0 -2 -2 -2q0 -4 -5 -4l-2 -2q-2 -2 -6 -2q-2 -2 -4 -2h-4h-4q-10 0 -16 10q-5 7 -5 16q0 2 1 5z" />
<glyph unicode="o" horiz-adv-x="1280" d="M143 414q0 46 9 92q37 206 199 352t358 146q173 0 286 -119q111 -117 111 -295q0 -51 -8 -92l-25 4l25 -4q-24 -135 -106.5 -249t-202 -181t-248.5 -68q-174 0 -287 119q-111 121 -111 295zM195 414q0 -157 96.5 -259.5t249.5 -103.5q114 0 223 61t185.5 166t97.5 228 q8 39 8 84q-2 158 -98 260t-248 102h-2q-114 0 -222.5 -61t-184.5 -165.5t-97 -227.5q-8 -39 -8 -84z" />
<glyph unicode="p" horiz-adv-x="1351" d="M193 -410l161 920v2l82 469q1 10 10 16q8 5 16 5q2 0 5 -1q10 -1 17 -10t5 -20l-43 -236q81 120 208 193t264 73q177 0 292 -118q113 -119 113 -291q0 -28 -8 -90q-24 -134 -107.5 -247.5t-205 -179.5t-252.5 -67q-173 0 -291 121q-64 64 -92 156l-123 -703 q-1 -9 -9.5 -15.5t-17.5 -6.5q-2 0 -4 2q-10 1 -16 9q-5 6 -5 14q0 2 1 5zM397 422q2 -156 100.5 -258.5t252.5 -102.5h4q115 0 224 59q111 60 188 164t98 226q6 44 6 82q0 155 -98 255.5t-254 100.5h-3q-178 0 -328 -131t-181 -315q-9 -41 -9 -80z" />
<glyph unicode="q" horiz-adv-x="1351" d="M123 418q0 46 6 90q37 204 201.5 347.5t363.5 143.5q179 0 289 -116q65 -62 94 -158l45 254q1 10 10 16q8 5 16 5q2 0 5 -1q9 -2 15.5 -10.5t5.5 -17.5l-82 -471h-2l-162 -920q-1 -9 -9.5 -15.5t-17.5 -6.5q-2 0 -4 2q-10 1 -16 9t-4 19l118 686q-80 -121 -205.5 -194.5 t-263.5 -73.5q-175 0 -290 121q-113 116 -113 291zM156 504l24 -4q-6 -40 -6 -82q0 -155 99 -257t253 -102h3q176 0 326 131q151 132 185 318q7 51 7 82q0 156 -99 257t-254 101h-4q-115 0 -224 -60q-111 -60 -188 -163.5t-98 -224.5z" />
<glyph unicode="r" horiz-adv-x="899" d="M193 27l167 952q0 10 10 17q7 5 16 5h5q24 -7 21 -30l-58 -326q47 68 80 109q204 247 440 247q11 0 19 -8t8 -18t-8 -17.5t-19 -7.5h-5q-70 0 -138 -28q-71 -28 -124.5 -69.5t-104.5 -98t-82 -101.5t-58 -92q-9 -16 -16.5 -31t-12 -26t-5.5 -12l-84 -474q-3 -20 -25 -20 h-6q-9 1 -15.5 10.5t-4.5 18.5z" />
<glyph unicode="s" horiz-adv-x="1007" d="M117 180q9 9 20 10t17 -6q55 -54 136 -92.5t171 -38.5q132 0 233 68q101 63 117 155q2 13 2 26q0 66 -61 112q-71 53 -220 82h-2q-147 30 -217 84q-73 54 -73 133q0 18 4 37q20 108 132 181t249 73q46 0 86.5 -9.5t80 -30.5t59.5 -34t58 -41q9 -7 9 -17v-1q0 -10 -7 -17 q-8 -9 -18.5 -11.5t-18.5 3.5q-46 34 -75 52t-80.5 36t-104.5 18q-119 0 -213 -61q-94 -62 -106 -141q-2 -13 -3 -25q0 -58 56 -102q64 -50 199 -76h4q163 -34 237 -90q77 -61 77 -145q0 -17 -3 -36q-14 -77 -75 -140.5t-149.5 -98.5t-184.5 -35q-186 0 -338 143q-7 6 -7 15 q0 11 9 20z" />
<glyph unicode="t" horiz-adv-x="819" d="M90 979q1 10 9.5 17.5t19.5 7.5h172l71 407q1 10 10.5 17.5t20.5 7.5q10 0 16.5 -7t4.5 -18l-70 -407h164q11 0 17 -7.5t5 -17.5q-8 -27 -30 -27h-166l-141 -792q-1 -9 -1 -17q0 -34 20 -58q25 -30 69 -30q10 0 16 -7.5t4 -18.5q-1 -10 -10.5 -18.5t-20.5 -8.5 q-64 0 -102 46q-29 36 -29 83q0 14 2 29l142 792h-172q-11 0 -17 8q-4 6 -5 13q0 3 1 6z" />
<glyph unicode="u" horiz-adv-x="1255" d="M170 336q0 39 8 72l101 571q1 10 10 17q7 5 15 5h5q24 -8 21 -30l-103 -572q-4 -23 -4 -63q0 -124 81 -204.5t210 -80.5h5q142 -1 263 103q123 106 148 254l102 571q0 10 10 17q7 5 15 5h4q25 -7 22 -30l-102 -572q-29 -167 -165.5 -283t-301.5 -116q-153 0 -246 96 q-98 98 -98 240z" />
<glyph unicode="v" horiz-adv-x="1191" d="M111 969q-1 3 -1 5q0 8 5 15q6 9 16 10q3 1 6 1q7 0 13 -4q10 -6 12 -15l217 -887l532 895q6 9 17 11q3 1 6 1q7 0 14 -4q13 -9 13 -20q0 -7 -5 -14l-565 -949q-1 -1 -2 -2.5t-2 -2.5t-2 -1v-2q-8 -4 -10 -4h-6h-7q-1 0 -2 1t-2 1q-2 0 -2 2q-1 1 -3 2t-3 2l-2 2 q-1 1 -2 4t-2 4z" />
<glyph unicode="w" horiz-adv-x="1763" d="M121 967q-1 3 -1 5q0 8 5 15q6 9 16 10q9 3 18.5 -2.5t12.5 -15.5l217 -891l385 643q9 16 27 12q21 0 24 -18l158 -637l537 899q5 9 15 11q3 1 6 1q7 0 13 -4q14 -9 14 -20q0 -7 -5 -14l-570 -953q0 -3 -6 -6v-2l-8 -4h-6h-2h-6l-2 2q-3 0 -5 2q-1 1 -3 2t-3 2q0 2 -2 2 q-1 1 -2 4t-2 4l-155 643l-390 -649l-6 -6v-2l-8 -4h-2h-6h-6q-2 2 -4 2t-2 2q-1 1 -3.5 3t-3.5 3h-2q-1 1 -2 4t-2 4z" />
<glyph unicode="x" horiz-adv-x="1167" d="M139 26q0 10 6 17l420 459l-252 459q-6 9 -2 19t13 15q7 5 13 5q11 0 21 -15l244 -444l404 450q9 9 19 9q8 0 17 -7q8 -7 8 -19v-1q0 -10 -6 -17l-415 -458l252 -461q10 -21 -11 -35q-4 -2 -12 -2q-16 0 -22 12l-244 445l-408 -449q-5 -8 -18 -8q-10 0 -19 6q-8 7 -8 20z " />
<glyph unicode="y" horiz-adv-x="1204" d="M113 -332q4 9 14.5 12t19.5 -2q76 -43 177 -43h4q113 0 219 56q108 57 182.5 155.5t93.5 214.5l27 142q-67 -92 -168.5 -147t-214.5 -56q-146 0 -244 98q-98 95 -98 240q0 37 8 70l100 573q6 20 26 20h5q10 -1 16.5 -10t4.5 -18l-101 -574q-6 -35 -6 -61 q0 -124 80.5 -204.5t208.5 -80.5h3q144 0 266 104q124 105 149 251l55 305l47 268q6 20 24 20h5q10 -1 16 -10q5 -6 5 -12q0 -3 -1 -6l-100 -574l-62 -346q-23 -129 -104 -237t-199 -170.5t-247 -63.5q-108 0 -201 49q-13 9 -13 22q0 7 3 15z" />
<glyph unicode="z" horiz-adv-x="1134" d="M125 23q0 1 1 2t1 2v6l4 4q0 2 2 4l825 911h-639q-11 0 -18.5 7.5t-7.5 17.5q0 11 8 19t18 8h699q2 -1 4 -3h4q2 0 6 -4h2v-2q4 0 4 -4q0 -1 1 -2t1 -2q2 0 2 -4v-4v-2v-4q0 -2 -2 -4q0 -1 -1 -3t-1 -3l-2 -2l-827 -912h641q10 0 17 -7.5t7 -18.5t-7 -18t-17 -7h-698 q-7 0 -11 2q-2 0 -2 2q-4 0 -4 2h-2l-2 4l-2 4q-2 2 -2 4v7h-2z" />
<glyph unicode="{" horiz-adv-x="983" d="M117 557q7 39 55 39q77 0 132 17.5t89 53t53 80.5t31 109l29 162q12 68 30 118t52.5 97.5t86.5 82.5t130 64t184 50q18 5 31 1.5t10 -20.5q-5 -20 -31 -27q-154 -39 -243.5 -89t-132 -116.5t-60.5 -172.5l-28 -154q-22 -129 -88.5 -196t-176.5 -99q104 -36 144 -100.5 t18 -194.5l-29 -153q-13 -76 -7 -134t40 -102.5t100 -79t173 -63.5q23 -9 18 -29q-3 -17 -15.5 -19t-29.5 3q-162 34 -244.5 91t-98 135.5t2.5 184.5l29 162q24 131 -19 195.5t-192 64.5q-24 0 -35 10.5t-8 28.5z" />
<glyph unicode="|" horiz-adv-x="585" d="M251 -261q-4 13 1 32l321 1822q4 17 6.5 24t9.5 14t19 7q36 0 25 -45l-322 -1822q-7 -45 -39 -45q-17 0 -21 13z" />
<glyph unicode="}" horiz-adv-x="983" d="M113 -299q5 20 30 27q155 39 244 89t132 116.5t61 172.5l28 154q22 129 88 196t176 99q-51 18 -84 39.5t-56.5 56.5t-26.5 82.5t6 116.5l28 154q13 76 7.5 133.5t-40 102.5t-100 79t-172.5 63q-23 9 -18 29q3 17 15.5 19t29.5 -3q162 -34 244.5 -91t98 -135.5 t-2.5 -184.5l-29 -162q-24 -131 19 -195.5t192 -64.5q24 0 35 -10.5t8 -28.5q-7 -39 -55 -39q-77 0 -132 -17.5t-89 -53t-53 -80.5t-31 -109l-29 -162q-15 -85 -41.5 -144.5t-79 -113t-141.5 -90.5t-221 -63q-18 -5 -31 -2t-10 20z" />
<glyph unicode="~" horiz-adv-x="942" d="M174 520q0 5 8 29q15 46 64.5 84.5t91.5 38.5q40 0 134 -39t128 -39q62 0 102 88q0 1 4.5 13t9.5 17t13 5q15 0 26 -10t11 -25q0 -13 -4 -25q-21 -64 -62.5 -101.5t-99.5 -37.5q-37 0 -131 40t-131 40q-62 0 -98 -80q-12 -24 -33 -24q-33 0 -33 26z" />
<glyph unicode="&#xa1;" horiz-adv-x="516" d="M195 35l186 1067q1 9 9.5 14.5t17.5 5.5h4q11 -2 17 -11t3 -19l-186 -1065q-7 -24 -31 -21q-10 1 -16.5 10.5t-3.5 18.5zM428 1368l10 49q2 9 9 16t16 7q4 0 4 -2q11 -2 17 -10.5t5 -18.5l-10 -49q-2 -11 -10 -17.5t-18 -5.5q-26 8 -23 31z" />
<glyph unicode="&#xa2;" horiz-adv-x="1189" d="M127 590q0 40 6 86q34 185 180 322.5t336 166.5l29 129q4 17 6.5 24t9.5 14t19 7q35 0 24 -45l-28 -123h24q177 3 303 -110q8 -6 8.5 -16.5t-6.5 -18.5q-8 -8 -18.5 -8.5t-18.5 6.5q-111 96 -268 96q-25 0 -35 -2l-200 -893q40 -4 67 -4q162 0 307 98q9 6 20 4t17 -10 q6 -9 3.5 -20t-11.5 -17q-156 -108 -336 -108q-43 0 -80 6l-28 -129q-7 -45 -39 -45q-17 0 -21.5 13t0.5 32l31 141q-101 26 -178 103q-123 120 -123 301zM178 590q0 -127 71 -222t191 -130l197 874q-167 -33 -296 -159t-157 -287q-6 -38 -6 -76z" />
<glyph unicode="&#xa3;" horiz-adv-x="1318" d="M137 -2q5 17 29 20l162 19l135 600h-135h-11.5h-10t-8.5 0.5t-7 1.5t-5 3.5t-2 6.5t1 10q4 18 17 23.5t38 5.5h135l60 262q54 239 217 371q144 119 333 119q96 0 169.5 -27t116.5 -66.5t81 -97.5q10 -17 4 -39q-2 -10 -6 -15t-7.5 -5t-12.5 1t-15 1q-8 0 -15 9.5 t-13.5 23t-8.5 16.5q-49 76 -119.5 114t-185.5 38q-72 0 -155 -29.5t-136 -73.5q-63 -52 -119 -147t-77 -191l-60 -264h623q16 0 25 -1.5t15 -8t3 -19.5q-1 -7 -4.5 -11t-6 -6.5t-9 -3.5t-10 -1h-13h-12.5h-623l-135 -600l778 -2h5q16 0 23 -1t13 -6.5t4 -17.5 q-1 -4 -2.5 -7.5t-4 -6l-4.5 -4.5t-6 -3t-6 -2t-7 -1h-7.5h-9h-8.5h-985q-22 0 -25 5q-1 3 0 7z" />
<glyph unicode="&#xa5;" horiz-adv-x="1404" d="M111 389q3 13 14.5 23t24.5 10h323l51 254h-323q-13 0 -20 7t-5 17q3 13 13.5 22t23.5 9h301l-342 660q-6 7 -3 17.5t15 16.5q9 6 19.5 5t15.5 -9l348 -669l625 669q9 8 20 9t17 -5q8 -6 8.5 -16t-6.5 -18l-621 -660h303q12 0 20 -9.5t5 -21.5q-1 -9 -13 -16.5t-24 -7.5 h-326l-51 -254h326q12 0 18.5 -10.5t3.5 -22.5q-1 -12 -11.5 -19.5t-22.5 -7.5h-326l-70 -335q-8 -27 -30 -27q-11 0 -17.5 8.5t-3.5 18.5l70 335h-324q-29 0 -26 27z" />
<glyph unicode="&#xa8;" d="M272 1305q3 29 25 49t51 20t47 -20t15 -49q-5 -30 -26 -50t-50 -20q-30 0 -48 20.5t-14 49.5zM645 1305q3 29 25 49t51 20t47.5 -20t15.5 -49q-5 -30 -26.5 -50t-50.5 -20q-30 0 -48 20.5t-14 49.5z" />
<glyph unicode="&#xa9;" horiz-adv-x="1699" d="M109 713v4q0 149 58 285.5t157 236.5t237 159.5t291 59.5t290.5 -59t235.5 -158t155.5 -235t57.5 -285v-4q0 -149 -58 -285.5t-157 -237t-237 -160t-291 -59.5t-290.5 59t-235.5 158.5t-155.5 235.5t-57.5 285zM170 713q0 -186 88 -341.5t244 -247t346 -91.5 q191 0 348 92.5t245.5 249t88.5 342.5v4q0 186 -88 341.5t-244 247t-346 91.5q-191 0 -348 -92.5t-245.5 -249t-88.5 -342.5v-4zM485 725v4q0 158 109 272.5t266 114.5q146 0 264 -102q19 -15 19 -37q0 -19 -13 -31t-32 -12q-16 0 -33 14q-101 86 -207 86 q-120 0 -201.5 -88.5t-81.5 -214.5v-4q0 -125 83.5 -215t201.5 -90t217 90q15 10 29 10q17 0 29 -12t12 -29q0 -20 -14 -30q-64 -55 -126.5 -83t-148.5 -28q-157 0 -265 113t-108 272z" />
<glyph unicode="&#xad;" horiz-adv-x="835" d="M135 715q0 9 6 15.5t15 6.5h467q18 0 18 -22q0 -19 -18 -19h-467q-21 0 -21 19z" />
<glyph unicode="&#xae;" horiz-adv-x="851" d="M70 1094v2q0 147 104 252.5t252 105.5q150 0 253 -104.5t103 -251.5v-2q0 -147 -104 -253t-252 -106q-150 0 -253 105t-103 252zM90 1094q0 -141 96.5 -239.5t239.5 -98.5q141 0 238.5 99.5t97.5 240.5v2q0 141 -96.5 239.5t-239.5 98.5q-141 0 -238.5 -99.5 t-97.5 -240.5v-2zM285 872q0 -10 8 -10q3 0 6.5 3.5t3.5 6.5v197h125q6 -2 16 -4q38 -11 56 -31q32 -25 32 -69q0 -52 15 -78q9 -17 24 -17q4 0 4 2q7 0 7 9q-3 6 -11 6q-6 0 -12 8q-8 20 -8 70q0 64 -62 98q-10 6 -24 10q41 12 66.5 46.5t25.5 78.5q0 54 -37 91.5t-90 37.5 h-135h-2q-8 0 -8 -8v-447zM303 1087v222h127q46 0 79.5 -32t33.5 -79q0 -46 -33.5 -78.5t-79.5 -32.5h-127z" />
<glyph unicode="&#xb4;" d="M412 1231q0 10 8 22l127 191q24 37 57 37q18 0 25 -5t9 -15t3 -11q6 -11 -20 -37l-146 -158q-7 -7 -12 -11.5t-9.5 -7.5t-8 -4t-9.5 -3t-10 -4q-9 -4 -11.5 -3t-2.5 9z" />
<glyph unicode="&#xb8;" d="M348 -242q0 14 10 31l158 231h88l-133 -270q-10 -22 -21 -31.5t-32 -9.5q-25 0 -47.5 16t-22.5 33z" />
<glyph unicode="&#xbf;" horiz-adv-x="1093" d="M106 362q0 29 7 76q31 172 170.5 295.5t312.5 130.5l45 254q1 9 8.5 15t16.5 6h4q9 -2 15 -10.5t3 -18.5l-45 -264q-2 -2 -2 -4q0 -10 -7.5 -17.5t-17.5 -7.5q-160 0 -293 -114.5t-161 -274.5q-6 -34 -6 -66q0 -136 88.5 -224t228.5 -89q104 0 203 53t166 142q6 8 16.5 9 t18.5 -5q18 -14 4 -35q-74 -97 -182 -155t-226 -58q-160 0 -264 104q-103 103 -103 258zM684 1366l8 47q4 21 25 21h4q10 -1 16 -9.5t4 -19.5l-8 -47q-2 -9 -10.5 -15.5t-17.5 -3.5q-10 1 -16.5 9.5t-4.5 17.5z" />
<glyph unicode="&#xc0;" horiz-adv-x="1617" d="M119.5 18q-2.5 10 3.5 19l762 1382q10 16 26 13q20 3 27 -21l274 -1380q2 -11 -4 -20.5t-16 -10.5h-4q-9 0 -17.5 5.5t-9.5 14.5l-71 365h-717l-205 -373q-9 -12 -23 -12q-10 0 -14 2q-9 6 -11.5 16zM401 436h678l-180 901zM791 1860q1 2 2.5 11.5t8.5 14t25 4.5 q34 0 58 -37l127 -190q8 -12 8 -23q0 -8 -2.5 -9t-11.5 3q-4 1 -12.5 4.5t-12 5t-10.5 7t-15 14.5l-145 158q-26 26 -20 37z" />
<glyph unicode="&#xc1;" horiz-adv-x="1617" d="M119.5 18q-2.5 10 3.5 19l762 1382q10 16 26 13q20 3 27 -21l274 -1380q2 -11 -4 -20.5t-16 -10.5h-4q-9 0 -17.5 5.5t-9.5 14.5l-71 365h-717l-205 -373q-9 -12 -23 -12q-10 0 -14 2q-9 6 -11.5 16zM401 436h678l-180 901zM782 1640q0 9 9 23l127 190q24 37 57 37 q18 0 25 -4.5t9 -14.5t3 -11q6 -10 -21 -37l-145 -158l-12 -12t-10 -7.5t-7.5 -4t-9 -3.5t-10.5 -4q-15 -8 -15 6z" />
<glyph unicode="&#xc2;" horiz-adv-x="1617" d="M119.5 18q-2.5 10 3.5 19l762 1382q10 16 26 13q20 3 27 -21l274 -1380q2 -11 -4 -20.5t-16 -10.5h-4q-9 0 -17.5 5.5t-9.5 14.5l-71 365h-717l-205 -373q-9 -12 -23 -12q-10 0 -14 2q-9 6 -11.5 16zM401 436h678l-180 901zM678 1642q3 12 16 25l187 180q16 14 23.5 20.5 t18.5 11.5t23 5h17q30 0 49 -37l108 -180q7 -12 4 -25q0 -2 -1 -3.5t-2.5 -2t-3.5 -0.5t-4.5 0.5t-6.5 1t-8 0.5q-8 0 -16 5t-12 9.5t-10.5 13.5t-8.5 11l-111 154l-174 -156q-44 -37 -59 -37q-5 0 -14.5 -1t-12.5 -0.5t-2 5.5z" />
<glyph unicode="&#xc3;" horiz-adv-x="1617" d="M119.5 18q-2.5 10 3.5 19l762 1382q10 16 26 13q20 3 27 -21l274 -1380q2 -11 -4 -20.5t-16 -10.5h-4q-9 0 -17.5 5.5t-9.5 14.5l-71 365h-717l-205 -373q-9 -12 -23 -12q-10 0 -14 2q-9 6 -11.5 16zM401 436h678l-180 901zM606 1645q0 4 8 28q15 46 64.5 84.5t91.5 38.5 q40 0 134 -39t128 -39q63 0 103 88q1 3 4 10.5t5 12t6.5 8.5t10.5 4q15 0 26 -10t11 -25q0 -12 -4 -24q-21 -64 -62.5 -102t-99.5 -38q-37 0 -131 40t-131 40q-62 0 -98 -80q-12 -24 -33 -24q-33 0 -33 27z" />
<glyph unicode="&#xc4;" horiz-adv-x="1617" d="M119.5 18q-2.5 10 3.5 19l762 1382q10 16 26 13q20 3 27 -21l274 -1380q2 -11 -4 -20.5t-16 -10.5h-4q-9 0 -17.5 5.5t-9.5 14.5l-71 365h-717l-205 -373q-9 -12 -23 -12q-10 0 -14 2q-9 6 -11.5 16zM401 436h678l-180 901zM680 1714q3 29 25 49.5t51 20.5t46.5 -20.5 t14.5 -49.5q-5 -30 -26 -49.5t-50 -19.5q-30 0 -47.5 20t-13.5 49zM1053 1714q3 29 24.5 49.5t50.5 20.5t48 -20.5t16 -49.5q-5 -29 -27 -49t-51 -20q-30 0 -47.5 20t-13.5 49z" />
<glyph unicode="&#xc5;" horiz-adv-x="1546" d="M170 37l727 1319q-51 14 -77 57t-17 100v3q13 71 69.5 115t124.5 44q67 0 108.5 -45.5t29.5 -113.5v-3q-9 -54 -48 -97t-94 -58l262 -1321q3 -10 -3 -20t-17 -15q-2 0 -4.5 -1t-3.5 -1q-14 0 -25 18l-72 367h-716l-203 -367q-1 -7 -9 -12.5t-16 -5.5q-1 0 -4.5 1t-5.5 1 q-19 12 -6 35zM444 438h676l-180 897zM852 1511q-6 -39 13 -71t55 -41q20 -4 28 -4q20 0 35 6q39 10 67.5 41.5t34.5 68.5v2q8 46 -19.5 81.5t-76.5 35.5q-50 0 -89.5 -35.5t-47.5 -81.5v-2z" />
<glyph unicode="&#xc6;" horiz-adv-x="2340" d="M76 43l2 4q16 31 1057 1362q26 33 59 33h1018q16 0 25 -1.5t15 -8t3 -19.5q-3 -18 -15.5 -23.5t-37.5 -5.5h-887l-111 -620h795q23 0 35.5 -7t9.5 -26q-7 -33 -55 -33h-795l-113 -630h897q16 0 25 -1.5t15.5 -8t4.5 -19.5q-5 -31 -55 -31h-905q-22 0 -34.5 15.5 t-8.5 37.5l65 369h-641l-317 -405l-4 -5q-4 -4 -6 -5.5t-8 -5.5t-10.5 -3.5t-14.5 0.5q-23 3 -8 37zM487 485h607l159 901h-65z" />
<glyph unicode="&#xc7;" horiz-adv-x="1511" d="M150 594q0 69 10 123q34 194 161 358t312 259t385 96q256 0 432 -158q8 -8 8.5 -18.5t-6.5 -18.5q-6 -8 -17 -8.5t-20 6.5q-156 143 -397 143q-186 1 -361 -88.5t-295 -244.5t-151 -336q-10 -62 -10 -113q0 -115 42 -216t116.5 -174t182 -115t232.5 -42q242 0 453 146 q9 6 20 3.5t17 -10.5q6 -9 3 -19.5t-12 -16.5q-226 -154 -481 -154q-269 0 -450 170q-174 171 -174 428zM803 -242q0 14 10 31l158 231h88l-133 -270q-10 -21 -21.5 -31t-32.5 -10q-25 0 -47 16t-22 33z" />
<glyph unicode="&#xc8;" horiz-adv-x="1372" d="M215 31l244 1382q1 11 9.5 17t18.5 4q0 2 2 2h760q11 0 19 -8t8 -19t-8 -19t-19 -8h-743l-113 -639h645q11 0 19 -7t8 -17q0 -11 -8.5 -19t-18.5 -8h-653l-113 -639h734q10 0 18 -7.5t8 -18.5q0 -10 -7.5 -17.5t-18.5 -7.5h-760h-2h-2h-6q-9 2 -15.5 11t-5.5 18z M748 1860q1 2 2.5 11.5t8.5 14t25 4.5q34 0 58 -37l127 -190q8 -12 8 -23q0 -8 -2.5 -9t-11.5 3q-4 1 -12.5 4.5t-12 5t-10.5 7t-15 14.5l-145 158q-26 26 -20 37z" />
<glyph unicode="&#xc9;" horiz-adv-x="1372" d="M215 31l244 1382q1 11 9.5 17t18.5 4q0 2 2 2h760q11 0 19 -8t8 -19t-8 -19t-19 -8h-743l-113 -639h645q11 0 19 -7t8 -17q0 -11 -8.5 -19t-18.5 -8h-653l-113 -639h734q10 0 18 -7.5t8 -18.5q0 -10 -7.5 -17.5t-18.5 -7.5h-760h-2h-2h-6q-9 2 -15.5 11t-5.5 18z M911 1640q0 9 9 23l127 190q24 37 57 37q18 0 25 -4.5t9 -14.5t3 -11q6 -10 -21 -37l-145 -158l-12 -12t-10 -7.5t-7.5 -4t-9 -3.5t-10.5 -4q-15 -8 -15 6z" />
<glyph unicode="&#xca;" horiz-adv-x="1372" d="M215 31l244 1382q1 11 9.5 17t18.5 4q0 2 2 2h760q11 0 19 -8t8 -19t-8 -19t-19 -8h-743l-113 -639h645q11 0 19 -7t8 -17q0 -11 -8.5 -19t-18.5 -8h-653l-113 -639h734q10 0 18 -7.5t8 -18.5q0 -10 -7.5 -17.5t-18.5 -7.5h-760h-2h-2h-6q-9 2 -15.5 11t-5.5 18z M676 1642q3 12 16 25l187 180q16 14 23.5 20.5t18.5 11.5t23 5h17q30 0 49 -37l108 -180q7 -12 4 -25q0 -2 -1 -3.5t-2.5 -2t-3.5 -0.5t-4.5 0.5t-6.5 1t-8 0.5q-8 0 -16 5t-12 9.5t-10.5 13.5t-8.5 11l-111 154l-174 -156q-44 -37 -59 -37q-5 0 -14.5 -1t-12.5 -0.5t-2 5.5 z" />
<glyph unicode="&#xcb;" horiz-adv-x="1372" d="M215 31l244 1382q1 11 9.5 17t18.5 4q0 2 2 2h760q11 0 19 -8t8 -19t-8 -19t-19 -8h-743l-113 -639h645q11 0 19 -7t8 -17q0 -11 -8.5 -19t-18.5 -8h-653l-113 -639h734q10 0 18 -7.5t8 -18.5q0 -10 -7.5 -17.5t-18.5 -7.5h-760h-2h-2h-6q-9 2 -15.5 11t-5.5 18z M664 1714q3 29 24.5 49.5t50.5 20.5t47 -20.5t15 -49.5q-5 -30 -26 -49.5t-50 -19.5q-30 0 -47.5 20t-13.5 49zM1036 1714q3 29 25 49.5t51 20.5t48 -20.5t16 -49.5q-5 -29 -27 -49t-51 -20q-30 0 -48 20t-14 49z" />
<glyph unicode="&#xcc;" horiz-adv-x="561" d="M33 29l243 1382q1 10 10.5 16.5t18.5 4.5q10 -1 17.5 -10.5t5.5 -20.5l-244 -1381q-1 -10 -9 -16t-18 -6h-4q-23 7 -20 31zM190 1860q1 1 3 11t9 14.5t25 4.5q34 0 58 -37l127 -190q8 -12 8 -23q0 -8 -2.5 -9t-11.5 3q-4 1 -12.5 4.5t-12 5t-10.5 7t-15 14.5l-145 158 q-27 27 -21 37z" />
<glyph unicode="&#xcd;" horiz-adv-x="561" d="M229 29l244 1382q1 10 10.5 16.5t18.5 4.5q10 -1 17 -10.5t5 -20.5l-243 -1381q-1 -10 -9 -16t-18 -6h-4q-24 7 -21 31zM387 1640q0 11 8 23l127 190q24 37 58 37q18 0 25 -4.5t8.5 -14t2.5 -11.5q6 -11 -20 -37l-145 -158q-8 -9 -15 -14.5t-10.5 -7t-12 -5t-12.5 -4.5 q-9 -4 -11.5 -3t-2.5 9z" />
<glyph unicode="&#xce;" horiz-adv-x="561" d="M162 29l244 1382q1 10 10 16.5t18 4.5q10 -1 17.5 -10.5t5.5 -20.5l-244 -1381q-1 -10 -9 -16t-18 -6h-4q-23 7 -20 31zM209 1642q3 12 16 25l187 180q16 14 23.5 20.5t18.5 11.5t23 5h17q30 0 49 -37l108 -180q7 -12 4 -25q0 -2 -1 -3.5t-2.5 -2t-3.5 -0.5t-4.5 0.5 t-6.5 1t-8 0.5q-8 0 -16 5t-12 9.5t-10.5 13.5t-8.5 11l-111 154l-174 -156q-44 -37 -59 -37q-5 0 -14.5 -1t-12.5 -0.5t-2 5.5z" />
<glyph unicode="&#xcf;" horiz-adv-x="561" d="M43 29l244 1382q1 10 10 16.5t18 4.5q10 -1 17.5 -10.5t5.5 -20.5l-244 -1381q-3 -22 -26 -22h-5q-23 7 -20 31zM51 1714q3 29 25 49.5t51 20.5t46.5 -20.5t14.5 -49.5q-5 -30 -25.5 -49.5t-49.5 -19.5q-30 0 -48 20t-14 49zM424 1714q3 29 25 49.5t51 20.5t47.5 -20.5 t15.5 -49.5q-5 -29 -27 -49t-51 -20q-30 0 -47.5 20t-13.5 49z" />
<glyph unicode="&#xd1;" horiz-adv-x="1617" d="M217 35l242 1374q0 2 2 4q0 14 12 23q9 5 20 1.5t15 -12.5l717 -1319l229 1303q7 24 31 21q10 -1 16.5 -10.5t3.5 -18.5l-241 -1374q-1 -10 -8.5 -16.5t-16.5 -6.5h-6q-12 3 -19 14q-1 1 -2 3.5t-2 3.5l-712 1310l-232 -1308q-3 -23 -24 -23h-4q-11 3 -17.5 12t-3.5 19z M758 1645q0 4 8 28q15 46 64.5 84.5t91.5 38.5q40 0 134 -39t128 -39q62 0 102 88q0 1 4.5 13t9.5 17t13 5q15 0 26 -10t11 -25q0 -12 -4 -24q-21 -64 -62.5 -102t-99.5 -38q-37 0 -131 40t-131 40q-63 0 -99 -80q-12 -24 -32 -24q-33 0 -33 27z" />
<glyph unicode="&#xd2;" horiz-adv-x="1740" d="M150 588q0 64 12 131q26 146 102 278t182 227t240.5 151.5t271.5 56.5q123 0 228 -44.5t180 -125.5q76 -79 117 -186.5t41 -231.5q0 -71 -11 -133q-27 -145 -103 -276.5t-182 -227t-240.5 -152t-272.5 -57.5q-122 0 -227 44.5t-181 125.5q-76 79 -116.5 187t-40.5 233z M201 588q1 -153 65.5 -275.5t182 -192.5t266.5 -71q169 0 329.5 90t273 244.5t144.5 335.5q11 79 11 125q0 152 -65 274t-183 191.5t-267 70.5h-2q-168 0 -328.5 -89.5t-272 -244t-142.5 -335.5q-12 -65 -12 -123zM1092 1860q1 1 3 11t9 15t25 5q33 0 57 -37l127 -191 q8 -12 8 -22q0 -8 -2.5 -9t-11.5 3q-4 2 -10 4t-9.5 3t-8 4t-9.5 7.5t-12 11.5l-146 158q-26 26 -20 37z" />
<glyph unicode="&#xd3;" horiz-adv-x="1740" d="M150 588q0 64 12 131q26 146 102 278t182 227t240.5 151.5t271.5 56.5q123 0 228 -44.5t180 -125.5q76 -79 117 -186.5t41 -231.5q0 -71 -11 -133q-27 -145 -103 -276.5t-182 -227t-240.5 -152t-272.5 -57.5q-122 0 -227 44.5t-181 125.5q-76 79 -116.5 187t-40.5 233z M201 588q1 -153 65.5 -275.5t182 -192.5t266.5 -71q169 0 329.5 90t273 244.5t144.5 335.5q11 79 11 125q0 152 -65 274t-183 191.5t-267 70.5h-2q-168 0 -328.5 -89.5t-272 -244t-142.5 -335.5q-12 -65 -12 -123zM997 1640q0 9 9 23l127 190q24 37 57 37q18 0 25 -4.5 t9 -14.5t3 -11q6 -10 -21 -37l-145 -158l-12 -12t-10 -7.5t-7.5 -4t-9 -3.5t-10.5 -4q-15 -8 -15 6z" />
<glyph unicode="&#xd4;" horiz-adv-x="1740" d="M150 588q0 64 12 131q26 146 102 278t182 227t240.5 151.5t271.5 56.5q123 0 228 -44.5t180 -125.5q76 -79 117 -186.5t41 -231.5q0 -71 -11 -133q-27 -145 -103 -276.5t-182 -227t-240.5 -152t-272.5 -57.5q-122 0 -227 44.5t-181 125.5q-76 79 -116.5 187t-40.5 233z M201 588q1 -153 65.5 -275.5t182 -192.5t266.5 -71q169 0 329.5 90t273 244.5t144.5 335.5q11 79 11 125q0 152 -65 274t-183 191.5t-267 70.5h-2q-168 0 -328.5 -89.5t-272 -244t-142.5 -335.5q-12 -65 -12 -123zM840 1643q3 11 16 24l187 181q16 14 23.5 20.5t18.5 11.5 t23 5h16q31 0 50 -37l108 -181q7 -12 4 -24q0 -2 -1 -3.5t-2.5 -2t-3.5 -0.5t-4.5 0.5t-6.5 1t-8 0.5q-8 0 -16 5t-12 9.5t-10.5 13.5t-8.5 11l-111 153l-174 -155q-44 -37 -60 -37q-5 0 -14 -1t-12 -0.5t-2 5.5z" />
<glyph unicode="&#xd5;" horiz-adv-x="1740" d="M150 588q0 64 12 131q26 146 102 278t182 227t240.5 151.5t271.5 56.5q123 0 228 -44.5t180 -125.5q76 -79 117 -186.5t41 -231.5q0 -71 -11 -133q-27 -145 -103 -276.5t-182 -227t-240.5 -152t-272.5 -57.5q-122 0 -227 44.5t-181 125.5q-76 79 -116.5 187t-40.5 233z M201 588q1 -153 65.5 -275.5t182 -192.5t266.5 -71q169 0 329.5 90t273 244.5t144.5 335.5q11 79 11 125q0 152 -65 274t-183 191.5t-267 70.5h-2q-168 0 -328.5 -89.5t-272 -244t-142.5 -335.5q-12 -65 -12 -123zM760 1645q0 4 8 28q15 46 64.5 84.5t91.5 38.5 q40 0 134 -39t128 -39q62 0 102 88q0 1 4.5 13t9.5 17t13 5q15 0 26 -10t11 -25q0 -12 -4 -24q-21 -64 -62.5 -102t-99.5 -38q-37 0 -131 40t-131 40q-63 0 -99 -80q-12 -24 -32 -24q-33 0 -33 27z" />
<glyph unicode="&#xd6;" horiz-adv-x="1740" d="M150 588q0 64 12 131q26 146 102 278t182 227t240.5 151.5t271.5 56.5q123 0 228 -44.5t180 -125.5q76 -79 117 -186.5t41 -231.5q0 -71 -11 -133q-27 -145 -103 -276.5t-182 -227t-240.5 -152t-272.5 -57.5q-122 0 -227 44.5t-181 125.5q-76 79 -116.5 187t-40.5 233z M201 588q1 -153 65.5 -275.5t182 -192.5t266.5 -71q169 0 329.5 90t273 244.5t144.5 335.5q11 79 11 125q0 152 -65 274t-183 191.5t-267 70.5h-2q-168 0 -328.5 -89.5t-272 -244t-142.5 -335.5q-12 -65 -12 -123zM800 1715q3 29 25 49t51 20t47 -20t15 -49q-5 -30 -26 -50 t-50 -20q-30 0 -48 20.5t-14 49.5zM1173 1715q3 29 25 49t51 20t47.5 -20t15.5 -49q-5 -30 -26.5 -50t-50.5 -20q-30 0 -48 20.5t-14 49.5z" />
<glyph unicode="&#xd7;" horiz-adv-x="1269" d="M205 340q0 21 16 37l346 342l-344 340q-18 18 -18 41q0 22 14.5 36.5t36.5 14.5q23 0 41 -18l340 -345l342 347q16 16 37 16q20 0 34.5 -14.5t14.5 -34.5q0 -21 -16 -37l-347 -342l345 -340q18 -18 18 -41q0 -22 -14.5 -36.5t-36.5 -14.5q-23 0 -41 18l-340 344 l-342 -346q-16 -16 -37 -16q-20 0 -34.5 14.5t-14.5 34.5z" />
<glyph unicode="&#xd9;" horiz-adv-x="1556" d="M190 473q0 51 9 100l147 834q1 10 10.5 17.5t20.5 5.5q23 -8 20 -31l-147 -834q-8 -41 -8 -92q2 -184 122.5 -304.5t311.5 -121.5q217 0 399 155t219 371l148 834q1 10 10.5 17.5t20.5 5.5q23 -7 20 -31l-147 -834q-27 -155 -126 -286t-243.5 -207t-300.5 -76 q-213 0 -350 137q-136 136 -136 340zM856 1860q1 1 3 11t9 14.5t25 4.5q33 0 57 -37l127 -190q8 -12 8 -23q0 -8 -2.5 -9t-11.5 3q-4 2 -10.5 4t-9 3.5t-7.5 4t-10 7.5l-12 12l-145 158q-27 27 -21 37z" />
<glyph unicode="&#xda;" horiz-adv-x="1556" d="M190 473q0 51 9 100l147 834q1 10 10.5 17.5t20.5 5.5q23 -8 20 -31l-147 -834q-8 -41 -8 -92q2 -184 122.5 -304.5t311.5 -121.5q217 0 399 155t219 371l148 834q1 10 10.5 17.5t20.5 5.5q23 -7 20 -31l-147 -834q-27 -155 -126 -286t-243.5 -207t-300.5 -76 q-213 0 -350 137q-136 136 -136 340zM797 1640q0 11 8 23l127 190q24 37 57 37q18 0 25 -4.5t9 -14.5t3 -11q6 -11 -20 -37l-146 -158l-12 -12t-10 -7.5t-7.5 -4t-9 -3.5t-10.5 -4q-9 -4 -11.5 -3t-2.5 9z" />
<glyph unicode="&#xdb;" horiz-adv-x="1556" d="M190 473q0 51 9 100l147 834q1 10 10.5 17.5t20.5 5.5q23 -8 20 -31l-147 -834q-8 -41 -8 -92q2 -184 122.5 -304.5t311.5 -121.5q217 0 399 155t219 371l148 834q1 10 10.5 17.5t20.5 5.5q23 -7 20 -31l-147 -834q-27 -155 -126 -286t-243.5 -207t-300.5 -76 q-213 0 -350 137q-136 136 -136 340zM762 1642q3 12 16 25l187 180q16 14 23.5 20.5t18.5 11.5t23 5h17q30 0 49 -37l108 -180q7 -12 4 -25q0 -2 -1 -3.5t-2.5 -2t-3.5 -0.5t-4.5 0.5t-6.5 1t-8 0.5q-8 0 -16 5t-12 9.5t-10.5 13.5t-8.5 11l-111 154l-174 -156 q-44 -37 -59 -37q-5 0 -14.5 -1t-12.5 -0.5t-2 5.5z" />
<glyph unicode="&#xdc;" horiz-adv-x="1556" d="M190 473q0 51 9 100l147 834q1 10 10.5 17.5t20.5 5.5q23 -8 20 -31l-147 -834q-8 -41 -8 -92q2 -184 122.5 -304.5t311.5 -121.5q217 0 399 155t219 371l148 834q1 10 10.5 17.5t20.5 5.5q23 -7 20 -31l-147 -834q-27 -155 -126 -286t-243.5 -207t-300.5 -76 q-213 0 -350 137q-136 136 -136 340zM723 1714q3 29 25 49.5t51 20.5t46.5 -20.5t14.5 -49.5q-5 -30 -26 -49.5t-50 -19.5q-30 0 -47.5 20t-13.5 49zM1096 1714q3 29 24.5 49.5t50.5 20.5t48 -20.5t16 -49.5q-5 -29 -27 -49t-51 -20q-30 0 -47.5 20t-13.5 49z" />
<glyph unicode="&#xdd;" horiz-adv-x="1466" d="M116.5 1410q3.5 10 12.5 15q9 6 20 3t15 -13l368 -663l609 669q7 7 18.5 7.5t18.5 -5.5q7 -7 7.5 -18.5t-5.5 -18.5l-627 -692h-2l-119 -678q-3 -20 -24 -20h-7q-9 2 -15 11.5t-5 19.5l119 675l-381 689q-6 9 -2.5 19zM653 1640q0 9 9 23l126 190q24 37 58 37 q18 0 25 -4.5t9 -14.5t3 -11q6 -10 -21 -37l-145 -158l-12 -12t-10 -7.5t-7.5 -4t-9 -3.5t-10.5 -4q-15 -8 -15 6z" />
<glyph unicode="&#xdf;" horiz-adv-x="1269" d="M197 45l172 983q39 216 185 350.5t351 134.5q182 0 277 -102.5t67 -255.5v-4q-13 -72 -51 -136.5t-93 -112.5t-116.5 -83t-128.5 -57q81 -15 147.5 -43t118 -71.5t74 -108.5t8.5 -144v-4q-33 -182 -192 -282.5t-391 -108.5q-17 0 -27.5 13t-7.5 32q3 18 18 30.5t33 14.5 q187 10 310 83.5t147 213.5l2 4q23 132 -73 207.5t-271 99.5q-49 6 -43 50q8 37 51 51q333 109 377 348v4q20 117 -51.5 192.5t-206.5 75.5q-151 0 -266.5 -106.5t-147.5 -284.5l-172 -983q-5 -22 -21 -35.5t-38 -13.5t-33.5 13.5t-7.5 35.5z" />
<glyph unicode="&#xe0;" horiz-adv-x="1175" d="M129 414q0 50 8 94q37 204 197.5 347.5t355.5 143.5q174 3 285 -118q61 -64 88 -156l47 254q2 11 10.5 17t18.5 3q10 -1 16 -9t4 -19l-84 -473l-82 -471q-2 -9 -8.5 -15t-15.5 -6h-4q-11 2 -17.5 10.5t-3.5 18.5l41 237q-79 -120 -203 -193.5t-260 -74.5q-174 0 -282 121 q-111 114 -111 289zM180 414q2 -157 96.5 -257t245.5 -100q114 -1 222.5 59t184.5 164.5t97 227.5q6 44 6 84q0 156 -95 256t-247 100h-2q-172 0 -320 -132.5t-180 -317.5q-8 -39 -8 -84zM682 1450q1 1 3 11t9 15t25 5q33 0 57 -37l127 -191q8 -12 8 -22q0 -8 -2.5 -9 t-11.5 3q-4 2 -10 4t-9.5 3t-8 4t-9.5 7.5t-12 11.5l-146 158q-26 26 -20 37z" />
<glyph unicode="&#xe1;" horiz-adv-x="1175" d="M129 414q0 50 8 94q37 204 197.5 347.5t355.5 143.5q174 3 285 -118q61 -64 88 -156l47 254q2 11 10.5 17t18.5 3q10 -1 16 -9t4 -19l-84 -473l-82 -471q-2 -9 -8.5 -15t-15.5 -6h-4q-11 2 -17.5 10.5t-3.5 18.5l41 237q-79 -120 -203 -193.5t-260 -74.5q-174 0 -282 121 q-111 114 -111 289zM180 414q2 -157 96.5 -257t245.5 -100q114 -1 222.5 59t184.5 164.5t97 227.5q6 44 6 84q0 156 -95 256t-247 100h-2q-172 0 -320 -132.5t-180 -317.5q-8 -39 -8 -84zM580 1231q0 10 8 22l127 191q24 37 57 37q18 0 25 -5t9 -15t3 -11q6 -10 -21 -37 l-145 -158q-7 -7 -12 -11.5t-9.5 -7.5t-8 -4t-9.5 -3t-10 -4q-9 -4 -11.5 -3t-2.5 9z" />
<glyph unicode="&#xe2;" horiz-adv-x="1175" d="M129 414q0 50 8 94q37 204 197.5 347.5t355.5 143.5q174 3 285 -118q61 -64 88 -156l47 254q2 11 10.5 17t18.5 3q10 -1 16 -9t4 -19l-84 -473l-82 -471q-2 -9 -8.5 -15t-15.5 -6h-4q-11 2 -17.5 10.5t-3.5 18.5l41 237q-79 -120 -203 -193.5t-260 -74.5q-174 0 -282 121 q-111 114 -111 289zM180 414q2 -157 96.5 -257t245.5 -100q114 -1 222.5 59t184.5 164.5t97 227.5q6 44 6 84q0 156 -95 256t-247 100h-2q-172 0 -320 -132.5t-180 -317.5q-8 -39 -8 -84zM578 1233q3 11 16 24l186 181q40 37 66 37h16q30 0 49 -37l109 -181q7 -12 4 -24 q-1 -5 -3 -5.5t-10 0.5t-14 1q-8 0 -16 5t-12 9.5t-10.5 13.5t-8.5 11l-110 153l-174 -155q-44 -37 -60 -37q-5 0 -14 -1t-12 -0.5t-2 5.5z" />
<glyph unicode="&#xe3;" horiz-adv-x="1175" d="M129 414q0 50 8 94q37 204 197.5 347.5t355.5 143.5q174 3 285 -118q61 -64 88 -156l47 254q2 11 10.5 17t18.5 3q10 -1 16 -9t4 -19l-84 -473l-82 -471q-2 -9 -8.5 -15t-15.5 -6h-4q-11 2 -17.5 10.5t-3.5 18.5l41 237q-79 -120 -203 -193.5t-260 -74.5q-174 0 -282 121 q-111 114 -111 289zM180 414q2 -157 96.5 -257t245.5 -100q114 -1 222.5 59t184.5 164.5t97 227.5q6 44 6 84q0 156 -95 256t-247 100h-2q-172 0 -320 -132.5t-180 -317.5q-8 -39 -8 -84zM514 1235q0 5 8 29q15 46 64.5 84t91.5 38q40 0 134 -38.5t128 -38.5q62 0 102 88 q0 1 4.5 13t9.5 17t13 5q15 0 26 -10t11 -25q0 -13 -4 -25q-21 -64 -62.5 -101.5t-99.5 -37.5q-37 0 -131 40t-131 40q-62 0 -98 -80q-12 -25 -33 -25q-33 0 -33 27z" />
<glyph unicode="&#xe4;" horiz-adv-x="1175" d="M129 414q0 50 8 94q37 204 197.5 347.5t355.5 143.5q174 3 285 -118q61 -64 88 -156l47 254q2 11 10.5 17t18.5 3q10 -1 16 -9t4 -19l-84 -473l-82 -471q-2 -9 -8.5 -15t-15.5 -6h-4q-11 2 -17.5 10.5t-3.5 18.5l41 237q-79 -120 -203 -193.5t-260 -74.5q-174 0 -282 121 q-111 114 -111 289zM180 414q2 -157 96.5 -257t245.5 -100q114 -1 222.5 59t184.5 164.5t97 227.5q6 44 6 84q0 156 -95 256t-247 100h-2q-172 0 -320 -132.5t-180 -317.5q-8 -39 -8 -84zM555 1305q3 29 25 49t51 20t46.5 -20t14.5 -49q-5 -30 -26 -50t-50 -20t-47 20.5 t-14 49.5zM928 1305q3 29 25 49t51 20t47.5 -20t15.5 -49q-5 -30 -27 -50t-51 -20t-47 20.5t-14 49.5z" />
<glyph unicode="&#xe5;" horiz-adv-x="1175" d="M104 414q0 44 9 94q37 204 197.5 347.5t355.5 143.5q173 3 284 -118q61 -64 88 -156l47 254q2 11 10.5 17t18.5 3q24 -4 21 -28l-84 -473l-82 -471q-1 -9 -8.5 -15t-16.5 -6h-4q-11 2 -17 10.5t-3 18.5l41 237q-79 -120 -203 -193.5t-260 -74.5q-175 0 -283 121 q-111 114 -111 289zM156 414q2 -157 96.5 -257t245.5 -100q85 -1 169.5 34.5t152.5 96t116.5 144.5t64.5 176q7 51 7 84q0 156 -95 256t-247 100h-2q-172 0 -320 -132.5t-180 -317.5q-8 -39 -8 -84zM686 1294v2q13 71 70 115.5t125 44.5q67 0 108 -46t29 -114v-2 q-11 -67 -67.5 -115.5t-127.5 -48.5q-69 0 -108.5 48t-28.5 116zM735 1292q-8 -46 19.5 -81t76.5 -35q50 0 90 35t48 81v2q8 46 -20 81.5t-77 35.5q-50 0 -89.5 -35.5t-47.5 -81.5v-2z" />
<glyph unicode="&#xe6;" horiz-adv-x="1953" d="M104 418q0 44 9 94q37 206 199 351t358 145q174 3 286 -119q64 -67 91 -158l47 256q2 11 10 17.5t18 3.5q10 -1 16.5 -9.5t4.5 -19.5l-49 -272q80 133 213.5 215t281.5 82q177 3 293 -119q115 -115 115 -295q0 -37 -2 -55q0 -1 -1 -4.5t-1 -4.5q-7 -18 -25 -18h-895 q-2 -4 -2 -10q-8 -36 -8 -82q0 -158 99.5 -260.5t258.5 -102.5q113 0 219.5 55t182.5 150q6 8 17 9t20 -5q8 -8 9 -18.5t-5 -18.5q-85 -103 -201.5 -163.5t-241.5 -61.5q-180 0 -295 121q-79 79 -102 184l-49 -278q-1 -9 -8.5 -15t-16.5 -6h-4q-11 2 -17 10.5t-3 18.5 l41 239q-79 -122 -204 -195.5t-261 -74.5q-176 0 -287 121q-111 117 -111 293zM156 418q2 -158 97.5 -259.5t248.5 -101.5q115 -1 224 60t185.5 166t98.5 229q6 44 6 84q0 158 -96.5 259t-249.5 101h-2q-114 0 -222.5 -61t-184.5 -165.5t-97 -227.5q-8 -39 -8 -84zM1085 559 h859q2 10 2 31q0 158 -100 260t-257 102q-164 1 -308.5 -112.5t-195.5 -280.5z" />
<glyph unicode="&#xe7;" horiz-adv-x="1169" d="M119 418q0 40 6 86q25 136 113.5 250t217.5 179.5t269 65.5q177 3 303 -110q8 -6 8.5 -16.5t-6.5 -18.5q-8 -8 -18.5 -8.5t-18.5 6.5q-111 96 -268 96q-127 1 -246 -60t-200.5 -166t-102.5 -228q-6 -37 -6 -76q0 -160 108.5 -264.5t278.5 -104.5q162 0 307 98q9 6 20 4 t17 -10q6 -9 3.5 -20t-11.5 -17q-156 -108 -336 -108q-191 0 -315 121q-123 120 -123 301zM612 -242q0 12 11 31l157 231h88l-133 -270q-10 -22 -21 -31.5t-32 -9.5q-25 0 -47.5 16t-22.5 33z" />
<glyph unicode="&#xe8;" horiz-adv-x="1196" d="M125 416q0 51 8 90q37 206 202.5 350.5t364.5 144.5q178 3 293 -118q115 -115 115 -295q0 -38 -2 -56q0 -1 -1 -4t-1 -4q-7 -18 -25 -18h-893q-2 -4 -2 -10q-8 -33 -8 -80q0 -158 100 -260.5t259 -102.5q111 0 217 55t182 150q6 8 17 9t20 -5q8 -8 9 -18.5t-5 -18.5 q-85 -103 -200.5 -163.5t-239.5 -61.5q-180 0 -295 121q-115 115 -115 295zM199 557h856q2 10 2 31q0 158 -100 260t-257 102q-163 1 -306.5 -112.5t-194.5 -280.5zM672 1450q1 1 3 11t9 15t25 5q33 0 57 -37l127 -191q8 -12 8 -22q0 -8 -2.5 -9t-11.5 3q-4 2 -10 4t-9.5 3 t-8 4t-9.5 7.5t-12 11.5l-146 158q-26 26 -20 37z" />
<glyph unicode="&#xe9;" horiz-adv-x="1196" d="M125 416q0 51 8 90q37 206 202.5 350.5t364.5 144.5q178 3 293 -118q115 -115 115 -295q0 -38 -2 -56q0 -1 -1 -4t-1 -4q-7 -18 -25 -18h-893q-2 -4 -2 -10q-8 -33 -8 -80q0 -158 100 -260.5t259 -102.5q111 0 217 55t182 150q6 8 17 9t20 -5q8 -8 9 -18.5t-5 -18.5 q-85 -103 -200.5 -163.5t-239.5 -61.5q-180 0 -295 121q-115 115 -115 295zM199 557h856q2 10 2 31q0 158 -100 260t-257 102q-163 1 -306.5 -112.5t-194.5 -280.5zM573 1231q0 9 9 22l127 191q24 37 57 37q18 0 25 -5t9 -15t3 -11q6 -10 -21 -37l-145 -158q-7 -7 -12 -11.5 t-9.5 -7.5t-8 -4t-9.5 -3t-10 -4q-9 -4 -12 -3t-3 9z" />
<glyph unicode="&#xea;" horiz-adv-x="1196" d="M125 416q0 51 8 90q37 206 202.5 350.5t364.5 144.5q178 3 293 -118q115 -115 115 -295q0 -38 -2 -56q0 -1 -1 -4t-1 -4q-7 -18 -25 -18h-893q-2 -4 -2 -10q-8 -33 -8 -80q0 -158 100 -260.5t259 -102.5q111 0 217 55t182 150q6 8 17 9t20 -5q8 -8 9 -18.5t-5 -18.5 q-85 -103 -200.5 -163.5t-239.5 -61.5q-180 0 -295 121q-115 115 -115 295zM199 557h856q2 10 2 31q0 158 -100 260t-257 102q-163 1 -306.5 -112.5t-194.5 -280.5zM530 1233q2 9 17 24l186 181q40 37 66 37h16q30 0 49 -37l109 -181q7 -12 4 -24q-1 -5 -3 -5.5t-10 0.5 t-14 1q-8 0 -16 5t-12 9.5t-10.5 13.5t-8.5 11l-110 153l-175 -155q-44 -37 -59 -37q-5 0 -14.5 -1t-12.5 -0.5t-2 5.5z" />
<glyph unicode="&#xeb;" horiz-adv-x="1196" d="M125 416q0 51 8 90q37 206 202.5 350.5t364.5 144.5q178 3 293 -118q115 -115 115 -295q0 -38 -2 -56q0 -1 -1 -4t-1 -4q-7 -18 -25 -18h-893q-2 -4 -2 -10q-8 -33 -8 -80q0 -158 100 -260.5t259 -102.5q111 0 217 55t182 150q6 8 17 9t20 -5q8 -8 9 -18.5t-5 -18.5 q-85 -103 -200.5 -163.5t-239.5 -61.5q-180 0 -295 121q-115 115 -115 295zM199 557h856q2 10 2 31q0 158 -100 260t-257 102q-163 1 -306.5 -112.5t-194.5 -280.5zM520 1305q3 29 25 49t51 20t46.5 -20t14.5 -49q-5 -30 -25.5 -50t-49.5 -20q-30 0 -48 20.5t-14 49.5z M893 1305q3 29 25 49t51 20t47.5 -20t15.5 -49q-5 -30 -27 -50t-51 -20t-47 20.5t-14 49.5z" />
<glyph unicode="&#xec;" horiz-adv-x="509" d="M6 31l166 950q3 9 12.5 15t18.5 3q11 -2 17 -10t3 -18l-166 -951q-2 -8 -9.5 -14t-14.5 -6h-6q-10 3 -16 12t-5 19zM74 1450q1 1 3 11t9 15t25 5q33 0 57 -37l127 -191q8 -12 8 -22q0 -8 -2.5 -9t-11.5 3q-4 2 -10 4t-9.5 3t-8 4t-9.5 7.5t-12 11.5l-146 158 q-26 26 -20 37z" />
<glyph unicode="&#xed;" horiz-adv-x="509" d="M207 31l166 950q3 9 12 15t18 3q11 -2 17.5 -10t3.5 -18l-166 -951q-1 -7 -9 -13.5t-16 -6.5h-6q-23 8 -20 31zM291 1231q0 10 8 22l127 191q24 37 57 37q18 0 25 -5t9 -15t3 -11q6 -11 -20 -37l-146 -158q-7 -7 -12 -11.5t-9.5 -7.5t-8 -4t-9.5 -3t-10 -4 q-9 -4 -11.5 -3t-2.5 9z" />
<glyph unicode="&#xee;" horiz-adv-x="509" d="M8 1233q2 9 17 24l186 181q16 14 23.5 20.5t18.5 11.5t23 5h17q30 0 49 -37l109 -181q7 -12 4 -24q-1 -5 -3 -5.5t-10 0.5t-14 1q-8 0 -16 5t-12 9.5t-10.5 13.5t-8.5 11l-111 153l-174 -155q-44 -37 -59 -37q-5 0 -14.5 -1t-12.5 -0.5t-2 5.5zM33 31l166 950q3 9 12 15 t18 3q11 -2 17.5 -10t3.5 -18l-166 -951q-1 -7 -9 -13.5t-16 -6.5h-6q-23 8 -20 31z" />
<glyph unicode="&#xef;" horiz-adv-x="509" d="M-37 1305q3 29 25 49t51 20t46.5 -20t14.5 -49q-5 -30 -25.5 -50t-49.5 -20q-30 0 -48 20.5t-14 49.5zM16 31l166 950q3 9 12.5 15t18.5 3q11 -2 17 -10t3 -18l-165 -951q-1 -7 -9 -13.5t-16 -6.5h-6q-10 3 -16 12t-5 19zM336 1305q3 29 25 49t51 20t47.5 -20t15.5 -49 q-5 -30 -27 -50t-51 -20t-47 20.5t-14 49.5z" />
<glyph unicode="&#xf1;" horiz-adv-x="1255" d="M193 27l102 577v2l65 375q1 10 10.5 16t20.5 4q9 -2 15.5 -11t5.5 -19l-31 -168q69 90 171.5 144t215.5 54q143 0 246 -96q94 -94 94 -241q0 -30 -6 -68l-98 -580q-1 -9 -10 -14.5t-19 -5.5h-4q-10 1 -16.5 10.5t-4.5 20.5l103 577q6 30 6 60q0 124 -81.5 204t-209.5 82 q-149 0 -273.5 -104t-150.5 -250l-100 -580q0 -4 -4 -8q0 -2 -2 -2q0 -4 -5 -4l-2 -2q-2 -2 -6 -2q-2 -2 -4 -2h-4h-4q-10 1 -16 10.5t-4 20.5zM586 1235q0 5 8 29q15 46 64.5 84t91.5 38q40 0 134 -38.5t128 -38.5q62 0 102 88q0 1 4.5 13t9.5 17t13 5q15 0 26 -10t11 -25 q0 -13 -4 -25q-21 -64 -62.5 -101.5t-99.5 -37.5q-37 0 -131 40t-131 40q-62 0 -98 -80q-12 -25 -33 -25q-33 0 -33 27z" />
<glyph unicode="&#xf2;" horiz-adv-x="1310" d="M119 414q0 51 8 92q37 206 199 352t358 146q174 0 287 -119q110 -116 110 -295q0 -51 -8 -92l-24 4l24 -4q-24 -135 -106.5 -249t-202 -181t-248.5 -68q-174 0 -287 119q-110 119 -110 295zM170 414q0 -157 96.5 -259.5t249.5 -103.5q114 0 223 61t185.5 166t97.5 228 q8 39 8 84q-2 158 -98 260t-248 102h-2q-114 0 -222.5 -61t-184.5 -165.5t-97 -227.5q-8 -39 -8 -84zM715 1450q1 1 3 11t9 15t25 5q33 0 57 -37l127 -191q8 -12 8 -22q0 -8 -2.5 -9t-11.5 3q-4 2 -10 4t-9.5 3t-8 4t-9.5 7.5t-12 11.5l-146 158q-26 26 -20 37z" />
<glyph unicode="&#xf3;" horiz-adv-x="1310" d="M119 414q0 51 8 92q37 206 199 352t358 146q174 0 287 -119q110 -116 110 -295q0 -51 -8 -92l-24 4l24 -4q-24 -135 -106.5 -249t-202 -181t-248.5 -68q-174 0 -287 119q-110 119 -110 295zM170 414q0 -157 96.5 -259.5t249.5 -103.5q114 0 223 61t185.5 166t97.5 228 q8 39 8 84q-2 158 -98 260t-248 102h-2q-114 0 -222.5 -61t-184.5 -165.5t-97 -227.5q-8 -39 -8 -84zM711 1231q0 10 8 22l127 191q24 37 57 37q18 0 25 -5t9 -15t3 -11q6 -11 -20 -37l-146 -158q-7 -7 -12 -11.5t-9.5 -7.5t-8 -4t-9.5 -3t-10 -4q-9 -4 -11.5 -3t-2.5 9z " />
<glyph unicode="&#xf4;" horiz-adv-x="1310" d="M119 414q0 51 8 92q37 206 199 352t358 146q174 0 287 -119q110 -116 110 -295q0 -51 -8 -92l-24 4l24 -4q-24 -135 -106.5 -249t-202 -181t-248.5 -68q-174 0 -287 119q-110 119 -110 295zM170 414q0 -157 96.5 -259.5t249.5 -103.5q114 0 223 61t185.5 166t97.5 228 q8 39 8 84q-2 158 -98 260t-248 102h-2q-114 0 -222.5 -61t-184.5 -165.5t-97 -227.5q-8 -39 -8 -84zM639 1233q3 11 16 24l187 181q16 14 23.5 20.5t18.5 11.5t23 5h17q30 0 49 -37l108 -181q7 -12 4 -24q0 -2 -1 -3.5t-2.5 -2t-3.5 -0.5t-4.5 0.5t-6.5 1t-8 0.5 q-8 0 -16 5t-12 9.5t-10.5 13.5t-8.5 11l-111 153l-174 -155q-44 -37 -59 -37q-5 0 -14.5 -1t-12.5 -0.5t-2 5.5z" />
<glyph unicode="&#xf5;" horiz-adv-x="1310" d="M119 414q0 51 8 92q37 206 199 352t358 146q174 0 287 -119q110 -116 110 -295q0 -51 -8 -92l-24 4l24 -4q-24 -135 -106.5 -249t-202 -181t-248.5 -68q-174 0 -287 119q-110 119 -110 295zM170 414q0 -157 96.5 -259.5t249.5 -103.5q114 0 223 61t185.5 166t97.5 228 q8 39 8 84q-2 158 -98 260t-248 102h-2q-114 0 -222.5 -61t-184.5 -165.5t-97 -227.5q-8 -39 -8 -84zM541 1235q0 5 8 29q15 46 64.5 84t91.5 38q40 0 134 -38.5t128 -38.5q62 0 102 88q0 1 4.5 13t9.5 17t13 5q15 0 26 -10t11 -25q0 -10 -5 -25q-21 -64 -62 -101.5 t-99 -37.5q-37 0 -131 40t-131 40q-63 0 -99 -80q-12 -25 -33 -25q-32 0 -32 27z" />
<glyph unicode="&#xf6;" horiz-adv-x="1310" d="M119 414q0 51 8 92q37 206 199 352t358 146q174 0 287 -119q110 -116 110 -295q0 -51 -8 -92l-24 4l24 -4q-24 -135 -106.5 -249t-202 -181t-248.5 -68q-174 0 -287 119q-110 119 -110 295zM170 414q0 -157 96.5 -259.5t249.5 -103.5q114 0 223 61t185.5 166t97.5 228 q8 39 8 84q-2 158 -98 260t-248 102h-2q-114 0 -222.5 -61t-184.5 -165.5t-97 -227.5q-8 -39 -8 -84zM541 1305q3 29 24.5 49t50.5 20t47 -20t15 -49q-5 -30 -26 -50t-50 -20t-47 20.5t-14 49.5zM913 1305q3 29 25 49t51 20t48 -20t16 -49q-5 -30 -27 -50t-51 -20 q-30 0 -48 20.5t-14 49.5z" />
<glyph unicode="&#xf7;" horiz-adv-x="1269" d="M139 721q-6 -20 3.5 -34.5t29.5 -14.5h909q20 0 40 14.5t26 34.5q7 20 -3 34.5t-30 14.5h-909q-20 0 -39 -14.5t-27 -34.5zM424 309l12 35q10 34 42.5 58t66.5 24t50 -24t5 -58l-12 -35q-12 -34 -44.5 -58t-66.5 -24t-49.5 24t-3.5 58zM688 1098l12 35q10 33 42.5 57 t66.5 24t50 -23.5t5 -57.5l-12 -35q-10 -34 -42.5 -58t-66.5 -24t-50 24t-5 58z" />
<glyph unicode="&#xf9;" horiz-adv-x="1255" d="M170 336q0 39 8 72l101 571q1 10 10 17t20 5q24 -8 21 -30l-103 -572q-4 -23 -4 -63q0 -124 81 -204.5t210 -80.5q145 -2 268 103.5t148 253.5l102 571q1 10 10.5 17t18.5 5q25 -7 22 -30l-102 -572q-29 -167 -165.5 -283t-301.5 -116q-153 0 -246 96q-98 98 -98 240z M600 1450q1 1 3 11t9 15t25 5q33 0 57 -37l127 -191q8 -12 8 -22q0 -8 -2.5 -9t-11.5 3q-4 2 -10 4t-9.5 3t-8 4t-9.5 7.5t-12 11.5l-145 158q-27 27 -21 37z" />
<glyph unicode="&#xfa;" horiz-adv-x="1255" d="M170 336q0 39 8 72l101 571q1 10 10 17t20 5q24 -8 21 -30l-103 -572q-4 -23 -4 -63q0 -124 81 -204.5t210 -80.5q145 -2 268 103.5t148 253.5l102 571q1 10 10.5 17t18.5 5q25 -7 22 -30l-102 -572q-29 -167 -165.5 -283t-301.5 -116q-153 0 -246 96q-98 98 -98 240z M672 1231q0 10 8 22l127 191q24 37 57 37q18 0 25 -5t9 -15t3 -11q6 -11 -20 -37l-146 -158q-7 -7 -12 -11.5t-9.5 -7.5t-8 -4t-9.5 -3t-10 -4q-9 -4 -11.5 -3t-2.5 9z" />
<glyph unicode="&#xfb;" horiz-adv-x="1255" d="M170 336q0 39 8 72l101 571q1 10 10 17t20 5q24 -8 21 -30l-103 -572q-4 -23 -4 -63q0 -124 81 -204.5t210 -80.5q145 -2 268 103.5t148 253.5l102 571q1 10 10.5 17t18.5 5q25 -7 22 -30l-102 -572q-29 -167 -165.5 -283t-301.5 -116q-153 0 -246 96q-98 98 -98 240z M526 1233q2 9 17 24l186 181q40 37 66 37h16q30 0 49 -37l109 -181q7 -12 4 -24q-1 -5 -3 -5.5t-10 0.5t-14 1q-8 0 -16 5t-12 9.5t-10.5 13.5t-8.5 11l-111 153l-174 -155q-44 -37 -59 -37q-5 0 -14.5 -1t-12.5 -0.5t-2 5.5z" />
<glyph unicode="&#xfc;" horiz-adv-x="1255" d="M170 336q0 39 8 72l101 571q1 10 10 17t20 5q24 -8 21 -30l-103 -572q-4 -23 -4 -63q0 -124 81 -204.5t210 -80.5q145 -2 268 103.5t148 253.5l102 571q1 10 10.5 17t18.5 5q25 -7 22 -30l-102 -572q-29 -167 -165.5 -283t-301.5 -116q-153 0 -246 96q-98 98 -98 240z M524 1305q3 29 25 49t51 20t47 -20t15 -49q-5 -30 -26 -50t-50 -20q-30 0 -48 20.5t-14 49.5zM897 1305q3 29 25 49t51 20t47.5 -20t15.5 -49q-5 -30 -27 -50t-51 -20t-47 20.5t-14 49.5z" />
<glyph unicode="&#xfd;" horiz-adv-x="1204" d="M113 -332q4 9 14.5 12t19.5 -2q76 -43 177 -43q115 -1 223 56t182.5 155.5t93.5 214.5l27 142q-67 -92 -168.5 -147t-214.5 -56q-146 0 -244 98q-98 95 -98 240q0 37 8 70l100 573q7 23 31 20q10 -1 16.5 -10t4.5 -18l-101 -574q-6 -35 -6 -61q0 -124 80.5 -204.5 t208.5 -80.5q146 -1 269.5 104t148.5 251l55 305l47 268q7 23 29 20q10 -1 16.5 -10t3.5 -18l-100 -574l-62 -346q-23 -129 -104 -237t-199 -170.5t-247 -63.5q-108 0 -201 49q-20 13 -10 37zM588 1231q0 10 8 22l127 191q24 37 57 37q18 0 25 -5t9 -15t3 -11q6 -11 -20 -37 l-146 -158q-7 -7 -12 -11.5t-9.5 -7.5t-8 -4t-9.5 -3t-10 -4q-9 -4 -11.5 -3t-2.5 9z" />
<glyph unicode="&#xff;" horiz-adv-x="1204" d="M113 -332q4 9 14.5 12t19.5 -2q76 -43 177 -43q115 -1 223 56t182.5 155.5t93.5 214.5l27 142q-67 -92 -168.5 -147t-214.5 -56q-146 0 -244 98q-98 95 -98 240q0 37 8 70l100 573q7 23 31 20q10 -1 16.5 -10t4.5 -18l-101 -574q-6 -35 -6 -61q0 -124 80.5 -204.5 t208.5 -80.5q146 -1 269.5 104t148.5 251l55 305l47 268q7 23 29 20q10 -1 16.5 -10t3.5 -18l-100 -574l-62 -346q-23 -129 -104 -237t-199 -170.5t-247 -63.5q-108 0 -201 49q-20 13 -10 37zM450 1305q3 29 25 49t51 20t47 -20t15 -49q-5 -30 -26 -50t-50 -20 q-30 0 -48 20.5t-14 49.5zM823 1305q3 29 25 49t51 20t47.5 -20t15.5 -49q-5 -30 -26.5 -50t-50.5 -20q-30 0 -48 20.5t-14 49.5z" />
<glyph unicode="&#x152;" horiz-adv-x="2537" d="M133 743q36 202 159.5 372t302 269t368.5 99q226 0 380.5 -137t190.5 -357l80 447q4 23 28 26h764q10 0 16.5 -7.5t4.5 -18.5q-7 -25 -29 -25h-737l-113 -639h650q10 0 15 -7t3 -17q-1 -12 -9.5 -19.5t-19.5 -7.5h-649l-113 -641h738q10 0 16 -7t4 -18q-1 -10 -10.5 -18 t-20.5 -8h-763q-23 0 -19 26l78 441q-114 -220 -318 -357t-430 -137q-143 0 -261.5 58.5t-194 157.5t-106.5 236t-5 289zM188 743q-25 -139 4 -266t99.5 -218t180 -146t239.5 -56q129 1 257 56t230.5 146t176.5 218t100 266q32 187 -27.5 345.5t-191.5 250t-304 91.5 q-173 0 -337 -91.5t-279 -250t-148 -345.5z" />
<glyph unicode="&#x153;" horiz-adv-x="2160" d="M119 414q0 51 8 92q37 206 199 352t358 146q174 0 287 -119q87 -94 106 -236q71 156 216 255.5t309 99.5q176 3 292 -119q115 -115 115 -295q0 -37 -2 -55q0 -1 -1 -4.5t-1 -4.5q-7 -18 -25 -18h-895q-2 -4 -2 -10q-8 -36 -8 -82q0 -158 100 -260.5t259 -102.5 q113 0 219 55t182 150q6 8 17 9t20 -5q8 -8 9 -18.5t-5 -18.5q-85 -103 -201 -163.5t-241 -61.5q-180 0 -295 121q-96 93 -111 233q-71 -156 -211.5 -254.5t-300.5 -99.5q-174 0 -287 119q-110 119 -110 295zM170 414q0 -157 96.5 -259.5t249.5 -103.5q114 0 223 61 t185.5 166t97.5 228q8 39 8 84q-2 158 -98 260t-248 102h-2q-114 0 -222.5 -61t-184.5 -165.5t-97 -227.5q-8 -39 -8 -84zM1098 559h858q2 10 2 31q0 158 -99.5 260t-256.5 102q-164 1 -308.5 -112.5t-195.5 -280.5z" />
<glyph unicode="&#x178;" horiz-adv-x="1466" d="M116.5 1410q3.5 10 12.5 15q9 6 20 3t15 -13l368 -663l609 669q7 7 18.5 7.5t18.5 -5.5q7 -7 7.5 -18.5t-5.5 -18.5l-627 -692h-2l-119 -678q-3 -20 -24 -20h-7q-9 2 -15 11.5t-5 19.5l119 675l-381 689q-6 9 -2.5 19zM492 1714q3 29 24.5 49.5t50.5 20.5t47 -20.5 t15 -49.5q-5 -30 -26 -49.5t-50 -19.5q-30 0 -47.5 20t-13.5 49zM864 1714q3 29 25 49.5t51 20.5t48 -20.5t16 -49.5q-5 -29 -27 -49t-51 -20q-30 0 -48 20t-14 49z" />
<glyph unicode="&#x2c6;" d="M291 1233q3 11 16 24l187 181q16 14 23.5 20.5t18.5 11.5t23 5h16q31 0 50 -37l108 -181q7 -12 4 -24q0 -2 -1 -3.5t-2.5 -2t-3.5 -0.5t-4.5 0.5t-6.5 1t-8 0.5q-8 0 -16 5t-12 9.5t-10.5 13.5t-8.5 11l-111 153l-174 -155q-44 -37 -60 -37q-5 0 -14 -1t-12 -0.5t-2 5.5z " />
<glyph unicode="&#x2dc;" d="M215 1235q0 5 8 29q15 46 64.5 84t91.5 38q40 0 134 -38.5t128 -38.5q62 0 102 88q0 1 4.5 13t9.5 17t13 5q15 0 26 -10t11 -25q0 -13 -4 -25q-21 -64 -62.5 -101.5t-99.5 -37.5q-37 0 -131 40t-131 40q-62 0 -98 -80q-13 -25 -33 -25q-33 0 -33 27z" />
<glyph unicode="&#x2000;" horiz-adv-x="945" />
<glyph unicode="&#x2001;" horiz-adv-x="1891" />
<glyph unicode="&#x2002;" horiz-adv-x="945" />
<glyph unicode="&#x2003;" horiz-adv-x="1891" />
<glyph unicode="&#x2004;" horiz-adv-x="630" />
<glyph unicode="&#x2005;" horiz-adv-x="472" />
<glyph unicode="&#x2006;" horiz-adv-x="315" />
<glyph unicode="&#x2007;" horiz-adv-x="315" />
<glyph unicode="&#x2008;" horiz-adv-x="236" />
<glyph unicode="&#x2009;" horiz-adv-x="378" />
<glyph unicode="&#x200a;" horiz-adv-x="105" />
<glyph unicode="&#x2010;" horiz-adv-x="835" d="M135 715q0 9 6 15.5t15 6.5h467q18 0 18 -22q0 -19 -18 -19h-467q-21 0 -21 19z" />
<glyph unicode="&#x2011;" horiz-adv-x="835" d="M135 715q0 9 6 15.5t15 6.5h467q18 0 18 -22q0 -19 -18 -19h-467q-21 0 -21 19z" />
<glyph unicode="&#x2012;" horiz-adv-x="835" d="M135 715q0 9 6 15.5t15 6.5h467q18 0 18 -22q0 -19 -18 -19h-467q-21 0 -21 19z" />
<glyph unicode="&#x2013;" horiz-adv-x="1353" d="M135 715q0 9 12 15.5t30 6.5h946q36 0 36 -22q0 -19 -36 -19h-946q-42 0 -42 19z" />
<glyph unicode="&#x2014;" horiz-adv-x="2377" d="M135 715q0 9 24.5 15.5t60.5 6.5h1890q73 0 73 -22q0 -19 -73 -19h-1890q-85 0 -85 19z" />
<glyph unicode="&#x2018;" horiz-adv-x="471" d="M158 1370v2v6v6v7q0 2 2 4q5 16 17.5 26.5t29.5 10.5q22 0 37.5 -16t15.5 -38q0 -20 -15.5 -34.5t-37.5 -14.5h-12q15 -34 49 -41q15 -8 10 -18q0 -5 -4 -9t-8 -4h-6q-78 20 -78 113z" />
<glyph unicode="&#x2019;" horiz-adv-x="471" d="M121 1380q0 22 15.5 38t37.5 16q15 0 28.5 -11t18.5 -26q0 -4 2 -4v-21q0 -92 -78 -112h-6q-5 0 -8.5 4t-3.5 8q-5 10 10 18q36 8 47 41h-10q-22 0 -37.5 14.5t-15.5 34.5z" />
<glyph unicode="&#x201a;" horiz-adv-x="471" />
<glyph unicode="&#x201c;" horiz-adv-x="839" d="M166 1112l14 51q37 158 107 213q32 26 69.5 46t51.5 20q12 0 19.5 -8.5t4.5 -22.5q-3 -16 -22 -27q-64 -31 -95.5 -67t-40.5 -90q53 -15 39 -72l-12 -43q-6 -28 -30 -48t-52 -20t-43.5 20t-9.5 48zM535 1112l14 51q37 159 106 213q32 26 69.5 46t51.5 20q12 0 20 -8.5 t5 -22.5q-3 -15 -23 -27q-64 -31 -95 -67t-40 -90q53 -15 39 -72l-12 -43q-6 -28 -30 -48t-52 -20t-43.5 20t-9.5 48z" />
<glyph unicode="&#x201d;" horiz-adv-x="839" d="M125 1075q3 16 22 27q64 31 95.5 67.5t40.5 90.5q-53 15 -39 71l12 43q6 28 30 48t52 20t43.5 -20t9.5 -48l-14 -51q-37 -158 -107 -213q-32 -27 -69 -46.5t-51 -19.5q-12 0 -20 8.5t-5 22.5zM494 1075q3 16 22 27q64 31 95 67.5t40 90.5q-53 15 -39 71l13 43q6 28 30 48 t52 20t43.5 -20t9.5 -48l-15 -51q-37 -159 -106 -213q-32 -26 -69.5 -46t-51.5 -20q-12 0 -19.5 8.5t-4.5 22.5z" />
<glyph unicode="&#x201e;" horiz-adv-x="839" d="M115 -184q7 18 24 26q64 31 96 68t41 90q-53 15 -36 72l10 43q7 29 32 48t54 19t43 -19t6 -48l-12 -52q-42 -156 -111 -213q-33 -26 -71.5 -45.5t-53.5 -19.5q-11 0 -18 8.5t-4 22.5zM483 -184q7 17 25 26q64 31 96 68t41 90q-54 15 -37 72l10 43q7 28 33 47.5t54 19.5 t42 -19.5t7 -47.5l-13 -52q-42 -157 -110 -213q-33 -26 -71.5 -45.5t-53.5 -19.5q-11 0 -18.5 8.5t-4.5 22.5z" />
<glyph unicode="&#x2026;" horiz-adv-x="1392" d="M168 57q0 22 15.5 37t37.5 15q20 0 34.5 -15t14.5 -37q0 -20 -14.5 -35.5t-34.5 -15.5q-22 0 -37.5 15.5t-15.5 35.5zM487 57q0 22 16 37t38 15q20 0 34.5 -15t14.5 -37q0 -20 -14.5 -35.5t-34.5 -15.5q-22 0 -38 15.5t-16 35.5zM807 57q0 22 15.5 37t37.5 15 q20 0 34.5 -15t14.5 -37q0 -20 -14.5 -35.5t-34.5 -15.5q-22 0 -37.5 15.5t-15.5 35.5z" />
<glyph unicode="&#x202f;" horiz-adv-x="378" />
<glyph unicode="&#x2039;" horiz-adv-x="636" d="M115 514q6 20 28 45l346 367q6 7 20.5 8.5t26.5 -4t11 -17.5q-3 -20 -15 -32l-354 -369l225 -365q13 -17 8.5 -39t-28.5 -22q-29 0 -39 18l-217 365q-15 26 -12 45z" />
<glyph unicode="&#x203a;" horiz-adv-x="636" d="M139 109q3 20 15 32l354 369l-225 364q-13 17 -8.5 39.5t28.5 22.5q29 0 39 -18l217 -365q15 -26 12 -45q-6 -20 -28 -45l-346 -367q-6 -7 -20.5 -8.5t-26.5 4t-11 17.5z" />
<glyph unicode="&#x205f;" horiz-adv-x="472" />
<glyph unicode="&#x2122;" horiz-adv-x="1413" d="M45 1417q0 13 10 13h426q11 0 11 -13q0 -10 -11 -10h-205l-100 -580q-4 -8 -12 -8q-10 0 -10 12l100 576h-199q-10 0 -10 10zM547 834l104 587q5 9 13 9h2q4 0 8 -7l176 -323l291 325q5 5 10 5h2q10 0 10 -13l-104 -588q-3 -10 -10 -10h-5q-8 3 -8 15l99 552l-277 -309 q-4 -4 -8 -4h-2h-2q-8 0 -8 6l-168 310l-101 -560q-3 -10 -10 -10h-2q-10 3 -10 15z" />
<glyph unicode="&#x25fc;" horiz-adv-x="1003" d="M0 0v1004h1004v-1004h-1004z" />
</font>
</defs>
</svg>
