<?xml version="1.0" standalone="no"?>
<!DOCTYPE svg PUBLIC "-//W3C//DTD SVG 1.1//EN" "http://www.w3.org/Graphics/SVG/1.1/DTD/svg11.dtd" >
<svg xmlns="http://www.w3.org/2000/svg">
<metadata></metadata>
<defs>
<font id="quicksanditalic" horiz-adv-x="1024" >
<font-face units-per-em="2048" ascent="1638" descent="-410" />
<missing-glyph horiz-adv-x="614" />
<glyph horiz-adv-x="0" />
<glyph unicode="&#xd;" horiz-adv-x="2048" />
<glyph unicode=" "  horiz-adv-x="614" />
<glyph unicode="&#x09;" horiz-adv-x="614" />
<glyph unicode="&#xa0;" horiz-adv-x="614" />
<glyph unicode="!" horiz-adv-x="516" d="M197 55l8 47q3 20 20 32t37 9q21 -5 32.5 -21.5t8.5 -37.5l-8 -47q-3 -18 -17 -29.5t-32 -11.5h-8q-22 5 -33.5 21.5t-7.5 37.5zM250 360l182 1029q3 20 20 32t37 9q20 -4 32 -22t9 -38l-182 -1028q-3 -19 -16.5 -30t-32.5 -11h-8q-22 4 -33 20.5t-8 38.5z" />
<glyph unicode="&#x22;" horiz-adv-x="839" d="M143 944l62 440q9 54 57 54h39q33 0 33 -35q0 -4 -10 -49l-117 -412q-6 -20 -14 -28.5t-21 -8.5q-34 0 -29 39zM512 944l61 440q9 54 58 54h39q32 0 32 -35q0 -4 -10 -49l-117 -412q-6 -21 -13.5 -29t-20.5 -8q-34 0 -29 39z" />
<glyph unicode="#" horiz-adv-x="1433" d="M96 430q3 20 20.5 34.5t37.5 14.5h223l166 484h-226q-21 0 -33 13.5t-8 33.5q3 20 20.5 34.5t37.5 14.5h241l113 338q6 20 23 32.5t37 12.5q25 0 33 -18t1 -42l-108 -323h424l112 338q6 20 23 32.5t37 12.5q25 0 33.5 -18t1.5 -42l-109 -323h205q20 0 32 -13.5t9 -33.5 t-20.5 -34.5t-37.5 -14.5h-221l-166 -484h224q20 0 32 -13.5t9 -33.5t-20.5 -34.5t-37.5 -14.5h-239l-117 -346q-6 -20 -23 -32.5t-37 -12.5q-25 0 -33 17.5t-1 41.5l112 332h-424l-116 -346q-6 -20 -23 -32.5t-37 -12.5q-25 0 -33.5 17.5t-1.5 41.5l113 332h-207 q-20 0 -32 13.5t-9 33.5zM475 479h424l166 484h-424z" />
<glyph unicode="$" horiz-adv-x="1294" d="M129 244q4 20 24 35.5t40 15.5q23 0 32 -14q137 -165 353 -187l149 584q-219 51 -298.5 141.5t-39.5 243.5q38 155 186.5 261t335.5 110l19 77q6 20 24.5 35t38.5 15t30.5 -15t4.5 -35l-18 -81q104 -9 179.5 -44t147.5 -100q24 -24 17 -47q-4 -21 -24 -36t-42 -15 q-21 0 -33 14q-115 115 -274 133l-145 -573q221 -49 303 -140t45 -243q-41 -162 -191 -267.5t-344 -111.5l-39 -160q-6 -20 -24.5 -34.5t-38.5 -14.5t-30.5 14.5t-4.5 34.5l39 162q-248 20 -412 199q-15 19 -10 43zM491 948q13 -53 76.5 -94t186.5 -72l139 559 q-148 -3 -258.5 -80t-138.5 -190q-18 -70 -5 -123zM668 92q152 3 265.5 82t143.5 197q16 71 1 124t-79.5 93t-187.5 69z" />
<glyph unicode="%" horiz-adv-x="1687" d="M145 1098l2 4q26 149 134 257.5t247 108.5q91 0 155 -51.5t88 -133.5t7 -177v-4q-27 -150 -135.5 -258.5t-247.5 -108.5q-91 0 -155 51.5t-88 134t-7 177.5zM147 53q3 15 15 27l1235 1358q22 22 43 22q19 0 30.5 -12.5t8.5 -30.5q-3 -14 -15 -26l-1237 -1358 q-20 -23 -41 -23q-19 0 -30.5 12.5t-8.5 30.5zM254 1102q-21 -120 26.5 -199.5t135.5 -79.5q90 0 162 79t92 196l2 4q20 119 -28.5 198.5t-135.5 79.5q-89 0 -161 -79.5t-93 -194.5v-4zM848 365v4q27 150 135.5 258t247.5 108q91 0 155 -51.5t88 -133.5t7 -177l-2 -4 q-26 -149 -134 -258t-247 -109q-91 0 -155 51.5t-88 134t-7 177.5zM954 369q-21 -120 26.5 -199.5t135.5 -79.5q90 0 163 79t93 196v4q21 118 -26.5 198t-135.5 80q-89 0 -161 -79.5t-93 -194.5z" />
<glyph unicode="&#x26;" horiz-adv-x="1425" d="M100 393q0 39 6 82q23 120 96 220.5t179 162.5q-55 77 -55 176q0 33 6 60q25 141 139 239t256 99q131 0 215 -84t84 -211q0 -30 -6 -60q-3 -20 -20 -32t-37 -9q-21 3 -32.5 20t-8.5 38q4 32 4 43q-2 87 -55.5 140t-143.5 54q-101 1 -190.5 -75t-106.5 -179q-4 -14 -4 -43 q0 -97 68 -149q17 -13 18.5 -34t-10.5 -38l-4 -2l-2 -2l-4 -4q-2 -1 -5.5 -3t-5.5 -3q-105 -46 -180 -139t-94 -203q-6 -30 -6 -64q2 -129 84.5 -211.5t216.5 -83.5q75 -1 150 29t134.5 81t102 121t55.5 146q6 34 6 66v12q-18 2 -51 2q-196 0 -270 -90q-45 -50 -45 -119 q0 -8 2 -10v-2q2 -20 -10.5 -36t-32.5 -19h-8q-19 0 -33 12t-17 31q0 10 -2 24q6 108 68 184q102 125 348 125q11 0 34 -1t36 -1q2 -2 10 -2q60 0 96 33q43 34 43 111v14q-1 21 12.5 36t34.5 17q21 1 36.5 -12.5t17.5 -34.5v-20q0 -125 -80 -189q-38 -32 -88 -45v-20 q0 -41 -9 -82q-34 -193 -190 -326t-350 -135q-173 0 -289 113q-113 113 -113 282z" />
<glyph unicode="'" horiz-adv-x="471" d="M143 1073q3 17 23 27q63 31 93.5 67t37.5 90q-52 14 -41 72l8 43q8 28 32 48t52 20t43 -20t8 -48l-10 -51q-34 -158 -98 -213q-34 -27 -71.5 -46.5t-51.5 -19.5q-12 0 -20 8.5t-5 22.5z" />
<glyph unicode="(" horiz-adv-x="880" d="M188 61q-61 214 2 564q59 345 197 563q74 118 177 187t224 69q23 0 37.5 -17.5t10.5 -40.5q-5 -23 -25 -40t-43 -17q-85 -1 -154 -47.5t-133 -142.5q-119 -185 -178 -514q-56 -330 -2 -514q30 -98 81.5 -144.5t137.5 -46.5q23 0 36.5 -16.5t10.5 -40.5q-4 -25 -24 -41.5 t-43 -16.5h-4q-119 0 -197.5 69t-110.5 187z" />
<glyph unicode=")" horiz-adv-x="880" d="M129 -137q5 23 25 40t43 17q85 1 153.5 47.5t132.5 143.5q120 188 179 514q56 330 2 514q-30 97 -82 143.5t-138 46.5q-23 0 -36.5 16.5t-10.5 40.5q4 24 24 41t44 17h4q119 0 197 -69t110 -187q61 -214 -2 -563q-60 -349 -196 -564q-74 -118 -177.5 -187t-224.5 -69 q-23 0 -37 17.5t-10 40.5z" />
<glyph unicode="*" horiz-adv-x="880" d="M160 991q6 27 35 39l229 100l-193 101q-28 14 -22 39q3 17 16.5 29.5t32.5 13.5q12 0 31 -13l164 -126l22 223q1 19 15.5 32t33.5 13t28.5 -13t4.5 -32l-55 -223l209 126q19 13 34 13q17 0 26.5 -12.5t6.5 -30.5q-5 -26 -35 -39l-229 -101l193 -100q27 -11 22 -39 q-3 -17 -17.5 -30t-31.5 -13q-12 0 -31 13l-164 126l-22 -223q-1 -19 -15.5 -32t-33.5 -13t-28.5 13t-4.5 32l55 223l-209 -126q-20 -13 -34 -13q-17 0 -26.5 12.5t-6.5 30.5z" />
<glyph unicode="+" horiz-adv-x="1269" d="M131 713q0 28 20 47.5t48 19.5h379l67 379q5 28 27.5 43.5t50.5 9.5q26 -4 42 -26.5t11 -48.5l-63 -357h356q28 0 47 -19.5t19 -47.5t-19 -48t-47 -20h-379l-67 -379q-4 -25 -22.5 -40t-43.5 -15h-12q-27 6 -42 28.5t-11 49.5l61 356h-354q-28 0 -48 20t-20 48z" />
<glyph unicode="," horiz-adv-x="471" d="M115 -182q3 17 22 26q63 31 93 67.5t38 90.5q-52 14 -41 72l9 43q8 28 31.5 47.5t51.5 19.5t43.5 -20t8.5 -47l-11 -51q-34 -158 -98 -213q-34 -27 -71.5 -46.5t-51.5 -19.5q-12 0 -19.5 8.5t-4.5 22.5z" />
<glyph unicode="-" horiz-adv-x="835" d="M135 713q0 17 11 27t28 10h436q16 0 27.5 -10t11.5 -27q0 -18 -11.5 -29.5t-27.5 -11.5h-436q-17 0 -28 11t-11 30z" />
<glyph unicode="." horiz-adv-x="471" d="M180 119q9 50 47 83.5t88 33.5q52 0 79 -33.5t18 -83.5q-9 -52 -46.5 -85.5t-89.5 -33.5q-51 0 -78 34t-18 85z" />
<glyph unicode="/" d="M-2 70l559 1327q9 19 27.5 26t38.5 0t27.5 -26t-1.5 -39l-559 -1327q-12 -31 -45 -31q-14 0 -20 2q-19 9 -26.5 28.5t-0.5 39.5z" />
<glyph unicode="0" horiz-adv-x="1454" d="M133 547q0 74 17 178q53 296 225 496q183 213 387 213q90 0 165 -43t128 -119q102 -150 102 -385q0 -80 -16 -178l-49 8l49 -8q-49 -287 -226 -496q-183 -213 -387 -213h-2q-88 0 -162.5 44t-127.5 120q-103 153 -103 383zM233 547q0 -201 86 -328q81 -119 209 -119 q77 0 158.5 46.5t153.5 132.5q155 183 202 446q15 85 15 162q0 200 -86 327q-81 119 -209 119q-77 0 -158 -46t-153 -130q-157 -188 -203 -448q-15 -83 -15 -162z" />
<glyph unicode="1" horiz-adv-x="686" d="M70.5 1233q5.5 20 23.5 29l309 165v3q5 0 7 2h4l4 2h6h4h4h2q2 0 4 -2h4l4 -2l5 -3l4 -2l4 -4l4 -4q2 -2 4 -2q0 -4 2 -4q0 -2 2 -4v-2q2 -2 2 -4q0 -1 1 -2t1 -2v-4v-7q2 -2 0 -4v-6l-235 -1335q-3 -17 -17 -29t-33 -12q-4 0 -8 2q-20 3 -32 20t-9 37l217 1231 l-217 -116q-11 -7 -22 -7q-28 0 -45 27q-9 19 -3.5 39z" />
<glyph unicode="2" horiz-adv-x="1208" d="M97 59q3 21 20 33l774 604q86 67 133 159.5t47 184.5q0 103 -55 179q-85 116 -246 116q-145 0 -270 -96l-80 -65q-17 -12 -38.5 -9.5t-33.5 19.5q-12 15 -9.5 36t17.5 33l82 64q152 119 332 119q97 0 183.5 -41t142.5 -117q75 -103 75 -238q-2 -117 -59 -229t-160 -193 l-659 -516h659q22 0 37 -14.5t15 -34.5q0 -22 -15 -36.5t-37 -14.5h-798h-4h-3q-26 0 -41 21q-12 15 -9 36z" />
<glyph unicode="3" horiz-adv-x="1249" d="M153.5 178q3.5 22 20.5 37q19 15 40.5 15t33.5 -15q91 -111 250 -111q158 0 293 111q133 115 159 272q27 162 -63 271q-90 112 -252 112q-23 0 -37 21h-2q-12 15 -8.5 37t20.5 37l422 366h-549q-22 0 -34 14.5t-9 36.5q5 22 22.5 37t39.5 15h669q22 0 34 -15t7 -37 q0 -10 -8 -22q-9 -14 -14 -17l-438 -380q140 -29 221 -132q119 -140 82 -344q-15 -95 -67.5 -185t-135.5 -159q-172 -143 -369 -143h-2q-94 0 -177 36.5t-140 106.5q-12 13 -8.5 35z" />
<glyph unicode="4" horiz-adv-x="1359" d="M102 347q0 21 15 36l1018 1038q2 0 2 2q2 0 6 4q2 3 4 3q2 2 4 2q1 0 2 1t2 1q4 0 6 2h4h4h9h2q9 -3 18 -9q1 -1 4 -3t4 -3l2 -2l4 -4q0 -1 1 -3t1 -3q3 -2 3 -4q2 -2 2 -4t2 -4v-6v-5v-10l-174 -979h88q22 0 36.5 -14.5t14.5 -34.5q0 -22 -14.5 -36.5t-36.5 -14.5h-105 l-45 -254q-3 -18 -17 -29.5t-32 -11.5q-6 0 -8 2q-22 3 -34 20t-7 37l41 236h-772h-2h-2q-21 0 -35 14q-15 15 -15 36zM270 397h676l148 838z" />
<glyph unicode="5" horiz-adv-x="1239" d="M130 181.5q2 21.5 17 35.5q17 12 39 10.5t35 -18.5q86 -109 244 -109q162 0 297 117q83 69 127.5 160.5t44.5 183.5q0 117 -70 199q-86 108 -243 108q-163 0 -297 -116q-17 -13 -38.5 -11t-35.5 17q-10 13 -10 28q-3 10 0 23l174 584q6 20 26 30q12 9 27 9h668 q22 0 37.5 -15t15.5 -37t-15.5 -36.5t-37.5 -14.5h-633l-125 -418q123 60 244 60q95 0 179.5 -37t143.5 -109q92 -115 92 -264q0 -115 -54 -226.5t-153 -197.5q-168 -139 -364 -139q-96 0 -180.5 37t-143.5 108q-13 17 -11 38.5z" />
<glyph unicode="6" horiz-adv-x="1314" d="M131 403q0 21 2 31v6q11 156 64.5 324t146.5 311q104 159 253 257.5t337 105.5q20 2 35.5 -12.5t15.5 -34.5q1 -21 -12.5 -36.5t-34.5 -17.5q-305 -11 -510 -317q-61 -97 -111 -219q76 70 172 109.5t197 39.5q176 0 293 -114q115 -115 115 -285q0 -17 -9 -82l-49 8l49 -8 q-35 -195 -193.5 -329.5t-354.5 -135.5q-176 0 -291 115t-115 284zM231 403q2 -130 86.5 -214t219.5 -85q103 -1 200.5 51t165 140t84.5 190q6 34 6 66q-2 130 -86 214t-221 85h-2q-155 0 -287.5 -113t-158.5 -268q-7 -40 -7 -66z" />
<glyph unicode="7" horiz-adv-x="1202" d="M139.5 40.5q-5.5 20.5 5.5 37.5l752 1257h-684q-20 0 -34.5 14.5t-14.5 36.5q0 20 14.5 35t34.5 15h772h4h6q2 -2 4 -2q3 0 5 -2q4 0 6 -2h2v-3q1 0 3 -1t3 -1q0 -1 1 -2t1 -2l4 -4l2 -2l4 -4q0 -4 2 -4q0 -4 2 -6v-4q0 -2 2 -4v-7v-4q0 -4 -2 -4v-6q0 -2 -2 -4 q0 -1 -1 -3t-1 -3l-2 -2l-797 -1333q-13 -25 -43 -25q-13 0 -24 8q-19 10 -24.5 30.5z" />
<glyph unicode="8" horiz-adv-x="1290" d="M113 391q0 46 8 82q26 145 126.5 259.5t239.5 164.5l-14 14q-72 72 -72 181q0 30 5 53q23 122 121 205t221 84q112 0 186 -74q72 -72 72 -180q0 -32 -5 -54q-13 -73 -56.5 -134.5t-106.5 -100.5q56 -27 106 -74q113 -113 113 -280q0 -40 -6 -80q-23 -125 -102.5 -229.5 t-195 -165.5t-241.5 -62q-171 0 -287 113q-112 112 -112 278zM170 465l47 -8q-6 -35 -6 -66q2 -127 84.5 -209.5t216.5 -83.5q100 -1 195.5 49.5t161.5 137.5t83 188q6 34 6 64q-2 129 -84 211t-217 83q-152 0 -283 -111t-157 -263zM453 1135l49 -9q-2 -12 -2 -34 q0 -68 43 -111.5t116 -44.5q85 -1 158.5 61.5t87.5 147.5q2 12 2 35q0 68 -43 111t-116 44q-85 1 -158.5 -61.5t-87.5 -147.5z" />
<glyph unicode="9" horiz-adv-x="1314" d="M135 887q0 41 6 82q23 128 104 234.5t199 168t246 62.5q176 0 291 -115q115 -112 115 -285v-28v-9q-13 -157 -67 -324t-146 -308q-105 -160 -253 -259t-335 -106h-2q-20 0 -35 13.5t-16 35.5q0 21 14 36t35 15q306 14 508 320q64 97 110 217q-160 -147 -368 -150 q-176 0 -291 115q-115 112 -115 285zM193 961l49 -9q-6 -34 -6 -65q2 -131 85.5 -214.5t219.5 -84.5q155 -1 288.5 112.5t159.5 268.5q6 34 6 65q-2 132 -85 215t-220 84q-102 1 -199 -50.5t-164.5 -139.5t-84.5 -191z" />
<glyph unicode=":" horiz-adv-x="491" d="M186 70q4 30 29 51.5t55 21.5q31 0 49 -21t13 -52q-6 -30 -31 -51t-55 -21q-31 0 -48.5 21.5t-11.5 50.5zM377 1153q4 31 29.5 52.5t56.5 21.5q30 0 47.5 -22t11.5 -52q-4 -31 -29.5 -52.5t-56.5 -21.5t-48 21.5t-11 52.5z" />
<glyph unicode=";" horiz-adv-x="491" d="M123 -180q0 15 18 26q59 31 86 68t27 90q-53 15 -47 72l4 43q3 29 25 48t51 19t45.5 -19t13.5 -48l-4 -51q-16 -155 -80 -213q-28 -26 -62.5 -46t-49.5 -20q-12 0 -20 8.5t-7 22.5zM399 1155q5 31 29.5 52.5t56.5 21.5q29 0 46.5 -21.5t13.5 -52.5q-4 -29 -30 -50.5 t-56 -21.5q-31 0 -48.5 21.5t-11.5 50.5z" />
<glyph unicode="&#x3c;" horiz-adv-x="1269" d="M123 709v6v4q0 4 2 6v6q0 1 1 2t1 2t1 3t1 3q2 2 2 4q4 4 4 7l2 2l6 6l770 657q19 15 43 13.5t39 -19.5t13.5 -42.5t-19.5 -41.5l-725 -620l500 -613q15 -20 13 -44.5t-21 -39.5q-15 -12 -37 -12q-31 0 -45 20l-539 660q0 2 -4 6v2q-4 4 -4 8l-2 2v9q-2 2 -2 4z" />
<glyph unicode="=" horiz-adv-x="1269" d="M162 489q0 23 17 40.5t40 17.5h758q26 0 42.5 -17t16.5 -41q0 -25 -16.5 -42t-42.5 -17h-758q-23 0 -40 17t-17 42zM242 946q0 24 17 41t42 17h758q23 0 40 -17.5t17 -40.5q0 -26 -16.5 -42.5t-40.5 -16.5h-758q-25 0 -42 16.5t-17 42.5z" />
<glyph unicode="&#x3e;" horiz-adv-x="1269" d="M189.5 65.5q1.5 23.5 19.5 38.5l725 621l-500 614q-15 19 -13 43t21 39q18 15 42.5 13.5t39.5 -21.5l539 -657q1 -1 2 -4t2 -4q4 -8 4 -11q2 0 2 -2q0 -4 2 -8v-2v-6v-6q0 -2 -2 -4v-7q0 -1 -1 -2t-1 -2t-1 -3t-1 -3q-2 -2 -2 -4q-4 -4 -4 -6q-1 0 -2 -1t-2 -1 q0 -2 -4 -6l-770 -658q-14 -14 -37 -14q-27 0 -45 21q-15 19 -13.5 42.5z" />
<glyph unicode="?" horiz-adv-x="1093" d="M82.5 1182q-2.5 20 9.5 35q73 99 183 157t231 58q163 0 270 -107q109 -106 109 -266q0 -24 -8 -78q-31 -170 -165.5 -292.5t-305.5 -137.5l-39 -227q-3 -18 -16.5 -29.5t-31.5 -11.5q-6 0 -8 2q-20 3 -31 19t-8 36l45 256q0 2 2 4q1 19 15 31t33 12q144 -1 267 104 t148 250q6 35 6 62q-2 121 -79 199t-203 79q-95 0 -186 -48.5t-152 -129.5q-12 -15 -32.5 -17.5t-35.5 9.5q-15 11 -17.5 31zM221 55l8 45q5 19 21 30.5t35 8.5q20 -4 31 -20t8 -35l-9 -45q-3 -18 -16 -29.5t-31 -11.5q-4 0 -8 2q-19 3 -30.5 19t-8.5 36z" />
<glyph unicode="@" horiz-adv-x="2007" d="M109 600q0 53 10 125q35 194 158 356.5t302 257t373 95.5q130 0 243 -45.5t196 -128.5q82 -80 127 -191t45 -238q0 -54 -13 -124q-30 -174 -135 -326l-11 -13q-10 -12 -27.5 -30t-41 -37.5t-57 -37.5t-68.5 -27q-35 -5 -41 -5q-62 -3 -102 48q-27 36 -27 90v24l9 49 q-123 -110 -273 -110q-135 0 -223 94q-89 95 -86 227q0 47 6 72q28 156 149.5 265t272.5 110q135 0 223 -94q86 -89 86 -228q0 -34 -6 -71q-1 -3 -2 -8.5t-2 -8.5v-6l-53 -305q0 -2 -1 -5.5t-1 -4.5q0 -21 8 -29q5 -8 22 -8q11 0 19 2q43 8 85 44t58 60l2 2q96 140 119 285 q10 62 10 106q-1 143 -64.5 257t-180 179t-265.5 66q-125 0 -249.5 -50t-223.5 -133.5t-169.5 -200t-92.5 -242.5q-8 -49 -8 -107q0 -217 141.5 -359t366.5 -143q68 0 157 21q20 5 38 -6t22 -31q6 -21 -5 -39.5t-32 -22.5q-81 -20 -180 -20q-266 0 -438 172 q-170 170 -170 428zM565 653q2 -98 59.5 -159t151.5 -62q110 -2 207 85t117 208q4 18 4 53q-2 98 -58.5 159t-150.5 62h-4q-108 0 -204 -86.5t-116 -205.5q-6 -27 -6 -54z" />
<glyph unicode="A" horiz-adv-x="1323" d="M122 36q-2 7 -3 14q0 12 6 24l737 1333q12 27 45 27q19 0 33.5 -11.5t17.5 -29.5l267 -1334q1 -4 1 -9q0 -16 -9 -29q-11 -17 -31 -21h-10q-19 0 -33 11t-17 30l-65 332h-658l-190 -346q-6 -12 -18.5 -19.5t-24.5 -7.5q-13 0 -25 6q-17 10 -23 30zM459 473h581l-153 772z " />
<glyph unicode="B" horiz-adv-x="1216" d="M219 61l234 1334q4 19 19 30t34 11h2h313q133 0 221 -88q86 -83 86 -215q0 -32 -6 -62q-15 -84 -63 -155.5t-119 -118.5q67 -28 115 -76q98 -95 98 -238v-8q0 -35 -6 -72q-31 -169 -166.5 -284t-304.5 -117h-404h-2h-2h-10q-21 6 -32 22q-8 12 -8 26q0 5 1 11zM328 102 h348h3q127 0 237 94q111 95 133 224q6 27 6 55q-2 107 -70.5 176t-181.5 70h-367zM455 823h258h5q104 -1 196 77q94 80 110 187q4 16 4 46q-2 90 -58 145.5t-149 56.5h-276z" />
<glyph unicode="C" horiz-adv-x="1472" d="M150 604q0 70 10 121q35 194 161 357t309 257t382 95q255 0 434 -158q18 -13 18 -37q0 -21 -14 -35q-14 -15 -34.5 -16t-35.5 12q-149 133 -368 133h-4q-170 0 -332 -83q-164 -84 -276.5 -228.5t-141.5 -312.5q-8 -49 -8 -105q0 -143 65.5 -257.5t186 -180t274.5 -66.5 q222 0 424 136q17 12 37.5 8t32.5 -21t8 -37t-21 -32q-226 -154 -481 -154q-134 0 -249 44.5t-201 127.5q-84 83 -130 194.5t-46 237.5z" />
<glyph unicode="D" horiz-adv-x="1472" d="M217 57l236 1334q3 18 17 29.5t32 11.5h2h266q266 0 438 -172q82 -82 126 -192.5t44 -236.5q0 -52 -10 -124q-35 -194 -158 -356.5t-302 -257t-373 -95.5h-267h-2h-8q-20 6 -32 22q-9 13 -10 29q0 4 1 8zM328 98h207h4q165 0 323 84q160 84 269.5 228.5t138.5 312.5 q8 49 8 108q-2 217 -142.5 358t-365.5 142h-225z" />
<glyph unicode="E" horiz-adv-x="1214" d="M217 55l236 1334q3 18 17.5 29.5t33.5 11.5h2h735q20 0 34.5 -15t14.5 -37q0 -20 -14.5 -34.5t-34.5 -14.5h-696l-101 -567h594q20 0 34.5 -14.5t14.5 -34.5q0 -22 -14.5 -36.5t-34.5 -14.5h-612l-100 -566h680q20 0 34.5 -14.5t14.5 -36.5q0 -20 -14.5 -34.5 t-34.5 -14.5h-736h-2h-2h-8q-20 6 -32 22q-9 13 -10 29q0 4 1 8z" />
<glyph unicode="F" horiz-adv-x="1228" d="M219 63l234 1334q3 18 17.5 29.5t33.5 11.5h4h733q20 0 34.5 -15t14.5 -37q0 -20 -14.5 -34.5t-34.5 -14.5h-696l-101 -567h594q20 0 34.5 -14.5t14.5 -34.5q0 -22 -14.5 -36.5t-34.5 -14.5h-610l-111 -625q-3 -18 -17 -29.5t-32 -11.5h-10q-21 6 -32 22q-8 12 -8 26 q0 5 1 11z" />
<glyph unicode="G" horiz-adv-x="1638" d="M150 608q0 60 12 121q34 194 159.5 357t309 257t383.5 95q255 0 434 -158q16 -15 16 -39q0 -19 -12 -33q-14 -15 -35.5 -16t-36.5 12q-146 133 -366 133h-4q-171 0 -333 -83q-164 -84 -276.5 -228.5t-140.5 -312.5q-10 -62 -10 -105q1 -107 39.5 -200t107 -160t167 -105 t214.5 -39q211 0 408 125l71 412h-378q-20 0 -35 14.5t-15 34.5q0 22 14.5 36.5t35.5 14.5h434h2q8 0 10 -2q22 -3 34 -20t7 -37l-86 -487q0 -7 -4 -15q0 -2 -2 -2v-2q-10 -14 -17 -18q-223 -154 -479 -154q-135 0 -250.5 44.5t-199.5 127.5q-85 82 -131.5 193.5 t-46.5 238.5z" />
<glyph unicode="H" horiz-adv-x="1556" d="M217 53l236 1333q3 20 19 32q13 9 30 10q4 0 8 -1q22 -3 34 -20t7 -37l-107 -608h736l110 624q3 20 20 32q13 9 29 10q4 0 9 -1q20 -3 32 -20q10 -14 10 -29q0 -4 -1 -8l-236 -1333q-3 -18 -17 -29.5t-32 -11.5h-8q-22 3 -34 20t-7 37l106 609h-735l-111 -625 q-3 -19 -16.5 -30t-32.5 -11h-8q-20 3 -32 20q-10 14 -10 29q0 4 1 8z" />
<glyph unicode="I" horiz-adv-x="624" d="M231 53l236 1333q3 20 19 32q13 9 30 10q4 0 8 -1q20 -3 32 -20q10 -14 9 -29v-8l-235 -1333q-3 -19 -16.5 -30t-32.5 -11h-9q-20 4 -32 20q-9 13 -10 29q0 4 1 8z" />
<glyph unicode="J" horiz-adv-x="1216" d="M90 342q-1 4 -1 8q0 16 11 30q12 16 33 19t37.5 -9.5t19.5 -33.5q18 -116 101.5 -187t210.5 -71h3q159 0 296 116q138 117 166 278l157 897q3 22 20 34q13 8 26 8q6 0 12 -1q21 -3 32 -20q10 -13 10 -29q0 -5 -1 -9l-158 -897q-37 -200 -200 -338.5t-363 -138.5h-2 q-160 0 -274 97.5t-136 246.5z" />
<glyph unicode="K" horiz-adv-x="1464" d="M217 61l236 1334q3 21 19 33q13 9 30 9q4 0 8 -1q20 -3 32 -20.5t9 -37.5l-143 -819l1017 866q15 12 36 10.5t34 -16.5q13 -14 13 -32q0 -24 -19 -39l-651 -555l460 -713q12 -17 7.5 -37.5t-21.5 -32.5q-12 -6 -27 -6q-29 0 -43 23l-454 702l-379 -323h-2l-64 -361 q-3 -19 -16.5 -30t-32.5 -11h-8q-20 3 -32 20q-10 14 -10 29q0 4 1 8z" />
<glyph unicode="L" horiz-adv-x="1267" d="M217 55l236 1334q3 21 19 33q13 9 30 9q4 0 8 -1q20 -3 32 -20.5t9 -37.5l-225 -1276h678q22 0 36.5 -14.5t14.5 -34.5q0 -22 -14.5 -35.5t-36.5 -13.5h-734h-2h-2h-8q-20 4 -32 20q-9 13 -10 29q0 4 1 8z" />
<glyph unicode="M" horiz-adv-x="1777" d="M217 55l236 1334q3 19 17 31q13 11 31 10h3h6q25 0 41 -25l381 -705l639 713q15 17 33 17h6q4 2 6 2t4 -2q22 -2 34 -20q8 -12 8 -26q0 -6 -1 -12l-236 -1333q-3 -19 -16.5 -30t-32.5 -11h-8q-20 3 -32 20t-9 37l207 1166l-571 -635q-14 -17 -37 -17h-2h-4 q-12 0 -24.5 7.5t-18.5 19.5l-349 639l-211 -1196q-3 -18 -17 -29.5t-32 -11.5h-10q-20 3 -32 20q-10 14 -10 29q0 4 1 8z" />
<glyph unicode="N" horiz-adv-x="1617" d="M217 61l234 1328l2 2q0 24 24 41q11 5 23 5q8 0 16 -2q20 -6 29 -24l659 -1210l209 1188q3 20 20 32t37 9q22 -4 33 -21q9 -13 9 -30q0 -4 -1 -9l-233 -1325q-3 -18 -17 -29.5t-32 -11.5h-8q-22 3 -37 25q0 4 -4 8l-654 1200l-211 -1192q-3 -19 -16.5 -30t-32.5 -11h-8 q-20 3 -32 20q-10 14 -10 29q0 4 1 8z" />
<glyph unicode="O" horiz-adv-x="1740" d="M150 592q0 66 12 133q35 193 151.5 355.5t287 257.5t355.5 96q122 0 229 -45.5t183 -126.5t118 -190t42 -232q0 -66 -12 -133l-50 10l50 -10q-36 -193 -153 -355.5t-287.5 -257t-354.5 -94.5q-123 0 -229.5 44.5t-182.5 125.5q-77 80 -118 189t-41 233zM250 592 q2 -215 132.5 -354t338.5 -140q156 0 306 84t255.5 229t134.5 314q10 65 10 115q-2 215 -132.5 353.5t-338.5 139.5h-4q-116 0 -232.5 -50t-210 -133.5t-160.5 -200t-89 -242.5q-10 -65 -10 -115z" />
<glyph unicode="P" horiz-adv-x="1193" d="M217 59l236 1334q3 18 17 29.5t32 11.5h2h403q151 0 252 -101q98 -95 98 -246q0 -33 -6 -71q-31 -168 -167 -284.5t-304 -117.5h-364l-101 -573q-3 -19 -16.5 -30t-32.5 -11q-6 0 -8 2q-20 3 -32 20q-10 14 -10 29q0 4 1 8zM434 715h346h5q125 0 235 93q112 95 133 224 q4 18 4 55q0 108 -68.5 176.5t-181.5 69.5h-364z" />
<glyph unicode="Q" horiz-adv-x="1728" d="M199 723q27 147 104.5 281.5t186.5 232.5t246.5 157t277.5 60q188 -2 329 -101t203 -266q39 -108 39 -228q0 -66 -12 -136q-39 -219 -188 -401.5t-351 -268.5l-223 -94q63 -13 115 -49q162 -105 286 -105q129 0 283 101q18 14 39 12t31 -20q8 -14 2 -36t-25 -36 q-177 -121 -344 -121h-2q-154 0 -336 117q-64 45 -162 45q-61 0 -119.5 -16.5t-78.5 -28.5h-2q-14 -7 -30.5 -5.5t-25.5 9.5h-2q-11 16 -12 22q-5 21 5.5 40.5t33.5 29.5l205 86q-164 22 -283 123.5t-170 258.5q-32 98 -32 204q0 65 12 133zM299 723q-10 -58 -10 -114 q0 -66 14 -129q26 -116 90.5 -199.5t164 -133t218.5 -49.5q157 0 307 83.5t255 227.5t135 314q11 60 11 117q0 66 -14 128q-27 117 -91.5 201t-164.5 133.5t-219 49.5q-118 0 -234.5 -49.5t-210 -133.5t-161 -200.5t-90.5 -245.5z" />
<glyph unicode="R" horiz-adv-x="1280" d="M188 59l236 1334q3 18 17.5 29.5t33.5 11.5h2h402q153 0 251 -101q101 -98 101 -246q0 -33 -6 -71q-23 -123 -104.5 -221t-196.5 -146q66 -39 112 -107q45 -66 45 -157q0 -26 -4 -72q-14 -74 -14 -125q0 -50 10 -65h5q35 0 48 -37q6 -20 -4 -37.5t-30 -23.5q-5 -5 -23 -5 h-2q-17 0 -38.5 10.5t-35.5 30.5q-30 44 -30 127q0 61 14 144q6 24 6 49q-2 102 -94 172q-58 42 -137 61h-4h-359l-100 -573q-3 -17 -17.5 -29t-31.5 -12q-7 0 -11 2q-20 3 -32 20q-10 14 -10 29q0 4 1 8zM408 715h344h3q127 -1 237 93q111 94 134 224q4 36 4 55 q-2 108 -70 176.5t-181 69.5h-363z" />
<glyph unicode="S" horiz-adv-x="1366" d="M154 266q13 15 32 16.5t31 -10.5q80 -75 192.5 -128.5t237.5 -53.5q183 0 328 94q140 91 158 211q3 19 3 37q0 89 -83 154q-93 70 -308 114h-4q-207 41 -311 119q-105 77 -105 193q0 26 5 55q13 77 64.5 146t127.5 118q156 103 357 103q66 0 126 -14t114 -42t87.5 -50 t81.5 -58q14 -9 14 -28v-2q0 -18 -12 -32q-14 -15 -32.5 -18.5t-32.5 6.5q-49 36 -78.5 55.5t-78 45t-98.5 37.5t-106 12q-166 0 -301 -86q-127 -84 -145 -193q-3 -16 -2 -31q0 -82 76 -141q96 -72 282 -107h4q221 -44 336 -129q64 -48 94 -115q20 -45 19 -98q0 -25 -4 -51 q-15 -84 -70 -157t-139 -125q-171 -113 -383 -113q-145 1 -269 61t-212 144q-11 10 -11 26q0 20 15 35z" />
<glyph unicode="T" horiz-adv-x="1327" d="M102 1386q0 20 15 35t35 15h964q20 0 34.5 -15t14.5 -35q0 -22 -14.5 -36.5t-34.5 -14.5h-440l-227 -1292q-3 -17 -17 -29t-33 -12q-6 0 -8 2q-22 3 -34 20t-7 37l223 1274h-421q-20 0 -35 14.5t-15 36.5z" />
<glyph unicode="U" horiz-adv-x="1667" d="M215 489q0 43 10 101l142 805q3 20 20 32q14 10 29 10q4 0 8 -1q22 -4 33 -21t8 -39l-141 -803q-9 -43 -9 -84q2 -169 111 -277.5t285 -109.5h4q128 0 250 65q124 66 209.5 179t107.5 244l143 805q3 20 21 32q14 10 29 10q4 0 8 -1q20 -6 32 -22q10 -13 10 -29 q0 -4 -1 -9l-144 -803q-28 -156 -126.5 -287t-242.5 -207t-300 -77h-2q-104 0 -196 36.5t-159 102.5q-139 139 -139 348z" />
<glyph unicode="V" horiz-adv-x="1536" d="M123 1374q-2 7 -2 14q1 12 7 24q10 18 32 22q7 2 14 2q12 0 23 -6q17 -10 22 -31l297 -1217l735 1229q11 19 31 25q7 2 13 1q13 0 24 -7q19 -10 24 -30q2 -6 2 -13q0 -14 -8 -27l-796 -1333l-2 -2l-7 -7q0 -1 -1 -2t-1 -2q-1 -1 -3 -2t-3 -2q-1 0 -2 -1t-2 -1 q-1 -1 -4 -2t-4 -2h-2q-4 -2 -12 -2q-9 0 -13 2h-2q-8 4 -10 6h-2q-1 1 -3 2t-3 2l-2 2q-1 1 -3 3.5t-3 3.5q-4 6 -8 18z" />
<glyph unicode="W" horiz-adv-x="2256" d="M129 1370q-2 6 -2 12q0 13 8 26q11 18 31 24q6 2 12 2q14 0 26 -8q18 -11 21 -31l299 -1217l520 873q15 24 46 24q19 1 33.5 -9.5t19.5 -27.5l211 -860l733 1229q11 19 31 24q6 2 12 2q14 0 27 -8q17 -11 21 -31l2 -12q0 -13 -7 -26l-797 -1333q0 -1 -2 -3q-1 -1 -1.5 -2 t-1.5 -2t-3 -2q0 -1 -1 -2t-1 -2q-2 0 -6 -4q-1 0 -2 -1t-2 -1q-2 -2 -8 -2l-2 -2h-9q-1 0 -2 -1t-2 -1q-2 0 -6 1t-6 1h-2q-8 4 -10 6h-2q-4 4 -7 4l-2 2q-4 4 -4 6q-2 0 -2 2q-4 4 -4 7q-1 2 -2 5t-2 5l-211 866l-526 -880q0 -1 -2 -3q0 -3 -6 -6q0 -1 -1 -2t-1 -2 q-3 0 -7 -4q-1 0 -2 -1t-2 -1q-2 -2 -8 -2l-2 -2h-8q-1 0 -2 -1t-2 -1q-2 0 -6 1t-6 1h-3q-8 4 -10 6h-2q-4 4 -6 4l-2 2q-4 4 -4 6q-2 0 -2 2q-3 4 -8 17z" />
<glyph unicode="X" horiz-adv-x="1478" d="M156 47q0 19 12 33l582 641l-353 635q-10 19 -4.5 38.5t23.5 28.5q13 8 27 8q6 0 12 -2q20 -5 30 -24l336 -606l557 614q14 15 35 16h3q19 0 32 -12q18 -13 18 -35v-1q0 -21 -14 -35l-580 -639l353 -635q9 -19 3 -39.5t-24 -30.5q-12 -6 -24 -6t-24.5 7.5t-18.5 19.5 l-336 606l-557 -617q-16 -16 -39 -16q-19 0 -33 14q-16 15 -16 37z" />
<glyph unicode="Y" horiz-adv-x="1236" d="M120 1394q6 20 23 29q13 8 27 8q6 0 12 -2q21 -5 31 -24l338 -612l563 620q14 15 36 16h3q19 0 33 -12q16 -15 16 -37q0 -18 -12 -32l-602 -664l-113 -645q-3 -18 -17 -29.5t-32 -11.5h-10q-20 3 -32 20t-9 37l114 643l-364 658q-6 12 -6 25q0 7 1 13z" />
<glyph unicode="Z" horiz-adv-x="1366" d="M145 45v2l2 2v6v4q3 3 3 7q2 2 2 4q2 2 2 4l4 4q0 2 2 2l1132 1249h-860q-22 0 -36.5 14.5t-14.5 36.5q0 20 14.5 35t36.5 15h975h2h6q1 0 4 -3h4q1 -1 3.5 -2t3.5 -2h2q4 -4 6 -4l2 -2q4 -4 4 -6q1 0 2 -1t2 -1q0 -4 2 -4l2 -4q0 -4 2 -4v-6q2 0 2 -5v-6v-4v-4 q-2 -2 -2 -6q0 -2 -2 -4q0 -2 -2 -4q0 -4 -2 -4l-2 -4q-2 -2 -2 -4l-1135 -1250h862q20 0 35 -14.5t15 -34.5q0 -21 -14.5 -36t-35.5 -15h-974h-2q-1 0 -4.5 1t-4.5 1h-4q-2 2 -4 2q-1 0 -2 1t-2 1l-4 2l-4 4q-2 0 -4 2l-4 4q0 1 -1 2t-1 2q-2 0 -2 5q-2 2 -2 4q-2 2 -2 4 l-3 4v6q0 2 -2 4z" />
<glyph unicode="[" horiz-adv-x="880" d="M207 -213l334 1593q5 22 24 38t41 16h475q15 0 24.5 -12t6.5 -27t-18.5 -27t-30.5 -12h-434l-322 -1544h434q15 0 23.5 -12t5.5 -27t-17.5 -27t-29.5 -12h-475q-22 0 -34 15.5t-7 37.5z" />
<glyph unicode="\" d="M29.5 1401q7.5 19 27.5 26t38.5 0t27.5 -26l559 -1327q7 -20 -0.5 -39.5t-26.5 -28.5q-6 -2 -20 -2q-33 0 -45 31l-559 1327q-9 20 -1.5 39z" />
<glyph unicode="]" horiz-adv-x="880" d="M117 -227q3 15 18.5 27t30.5 12h434l322 1544h-435q-15 0 -23 12t-5 27t17.5 27t29.5 12h475q22 0 34 -16t7 -38l-334 -1593q-4 -22 -23.5 -37.5t-41.5 -15.5h-476q-15 0 -24 12t-6 27z" />
<glyph unicode="^" d="M166 1022q0 10 14 27l336 360q37 37 64 37h16q17 0 28 -9t23 -28l209 -360q6 -12 6 -27q-2 -8 -11.5 -15.5t-23.5 -7.5q-54 0 -69 29l-189 322l-303 -322q-25 -29 -76 -29q-13 0 -19.5 7.5t-4.5 15.5z" />
<glyph unicode="_" horiz-adv-x="1228" d="M-41 -283q4 19 21 32t36 13h1237q19 0 28.5 -13t4.5 -32q-6 -19 -23 -32t-36 -13h-1237q-19 0 -28 13t-3 32z" />
<glyph unicode="`" d="M336 1434q2 15 32.5 31t59.5 16q33 0 51 -37l101 -191q7 -10 4 -22q0 -7 -9 -13t-20 -6q-38 0 -61 27l-142 158q-18 22 -16 37z" />
<glyph unicode="a" horiz-adv-x="1267" d="M82 416q0 51 8 92q24 134 104.5 246t198.5 178t248 67q175 0 289 -120q38 -41 59 -82l29 161q3 20 19 32q13 10 28 10q4 0 8 -1q20 -5 32 -21q10 -13 10 -28q0 -4 -1 -8l-160 -901q-3 -19 -16.5 -30t-32.5 -11h-8q-20 4 -31 20.5t-8 36.5l23 131q-77 -87 -181.5 -137 t-218.5 -51q-173 0 -288 121q-111 117 -111 295zM178 416q2 -139 86 -228t217 -90h5q153 0 287 120q136 122 165 290q6 40 6 76q-2 139 -85 227.5t-218 89.5h-2q-156 0 -290 -120.5t-163 -288.5q-8 -36 -8 -76z" />
<glyph unicode="b" horiz-adv-x="1351" d="M197 55l233 1334q6 21 22 33q13 9 29 9q4 0 8 -1q20 -5 32 -21.5t9 -38.5l-100 -559q80 87 187 137t223 51q182 0 299 -120q114 -117 114 -299q0 -50 -8 -91l-49 9l49 -9q-24 -135 -106.5 -248t-203.5 -178.5t-253 -66.5h-2q-179 0 -297 121q-38 41 -59 82l-29 -162 q-3 -18 -17 -29.5t-32 -11.5h-10q-21 6 -32 22q-8 12 -8 26q0 5 1 11zM367 416q2 -140 88.5 -229.5t226.5 -90.5h4q102 0 200 54q100 55 171 150.5t90 205.5q6 38 6 74q-2 141 -87.5 229.5t-225.5 89.5h-2q-159 0 -297 -121.5t-166 -288.5q-8 -36 -8 -73z" />
<glyph unicode="c" horiz-adv-x="1169" d="M119 426q0 45 8 84q37 207 208 349.5t382 144.5q183 0 307 -111q15 -15 15 -36q0 -20 -13 -34q-14 -15 -34 -16t-34 12q-96 86 -241 86h-3q-170 1 -316 -121q-147 -122 -175 -290q-6 -37 -6 -68q0 -141 95 -233t247 -93q146 0 279 90q17 11 37 7t30 -21q11 -17 8 -36 t-20 -31q-159 -107 -334 -107q-191 0 -315 121q-125 122 -125 303z" />
<glyph unicode="d" horiz-adv-x="1351" d="M123 422q0 49 8 90q24 135 106.5 248t204 179t254.5 67q179 0 297 -121q29 -29 62 -82l102 592q4 20 22 32q14 10 30 10q4 0 8 -1q19 -6 31 -22q9 -13 10 -29q0 -4 -1 -9l-235 -1333q-3 -18 -17 -29.5t-32 -11.5h-8q-22 5 -33.5 21.5t-7.5 37.5l22 129 q-81 -88 -187.5 -138t-221.5 -50h-2q-179 0 -297 121q-115 118 -115 299zM180 504l49 -8q-6 -41 -6 -74q2 -141 88 -230t226 -90h4q103 0 202 54q101 55 171.5 150.5t89.5 205.5q6 37 6 74q-2 140 -88.5 229t-225.5 90h-4q-103 0 -202 -54q-101 -55 -171.5 -150t-89.5 -205z " />
<glyph unicode="e" horiz-adv-x="1247" d="M119 420q0 48 8 92q24 134 106.5 246.5t203.5 178.5t255 67q177 0 295 -121q117 -120 117 -297q0 -18 -4 -54q0 -2 -1 -6t-1 -6q-5 -16 -18 -27.5t-29 -11.5h-830q-4 -20 -4 -61q0 -139 87 -229t226 -91q101 0 198.5 50.5t164.5 134.5q14 15 34.5 17t35.5 -11 q15 -12 17 -31.5t-11 -34.5q-80 -102 -196.5 -162.5t-242.5 -60.5h-2q-177 0 -295 121q-114 117 -114 297zM248 582h758v4q-2 139 -88.5 228.5t-225.5 90.5h-3q-139 1 -263 -91q-126 -92 -178 -232z" />
<glyph unicode="f" horiz-adv-x="741" d="M137 971q4 20 22 34.5t38 14.5h133l18 106q28 158 107 234q80 72 215 72q20 0 32 -15q10 -12 10 -28q0 -5 -1 -9q-3 -20 -20.5 -34.5t-39.5 -14.5q-91 0 -133 -39q-48 -44 -69 -166l-19 -106h141q22 0 34 -14.5t7 -34.5q-3 -22 -20 -36.5t-37 -14.5h-141l-156 -873 q-3 -20 -20 -34.5t-37 -14.5q-22 0 -34 14.5t-7 34.5l153 873h-135q-20 0 -32 14q-10 12 -10 28q0 5 1 9z" />
<glyph unicode="g" horiz-adv-x="1351" d="M123 412q0 39 10 94q24 133 105 246t199 179.5t245 67.5q176 0 293 -120q37 -41 57 -84l29 163q5 21 20 32q12 10 27 10q4 0 8 -1q22 -5 34 -21q8 -13 8 -27q0 -6 -1 -11l-80 -453l-73 -421q-37 -195 -195 -330t-350 -137q-114 0 -205 51q-19 9 -24.5 27.5t3.5 37.5 q11 17 29 22.5t37 -3.5q72 -37 160 -37h4q98 0 193 51q97 53 165 143t86 193l17 98q-80 -85 -184 -134.5t-212 -49.5h-2q-175 0 -290 121q-113 116 -113 293zM221 412q2 -141 86.5 -228.5t220.5 -87.5h5q151 0 284 118q135 121 164 292q8 33 8 72q-2 143 -86.5 232 t-220.5 89h-2q-99 0 -196.5 -55t-167 -150.5t-87.5 -206.5q-8 -36 -8 -75z" />
<glyph unicode="h" horiz-adv-x="1255" d="M190 45q0 7 3 10l233 1334q6 21 22 33q12 9 26 9q5 0 11 -1q20 -3 32 -20.5t9 -37.5l-86 -508q67 64 153.5 101.5t178.5 38.5q150 0 258 -103q100 -100 100 -252q0 -33 -6 -71l-98 -539q-3 -18 -17 -29.5t-32 -11.5h-10q-20 3 -31.5 20t-7.5 37l98 539q4 40 4 55 q-2 111 -72 182t-186 72h-3q-130 0 -243 -96q-114 -97 -137 -229l-98 -539v-2q-2 -2 -2 -8l-2 -2q-2 -2 -2 -7q-1 0 -2 -1t-2 -1l-2 -4q-1 -1 -2.5 -2t-2.5 -2q-2 -2 -4 -2l-2 -2l-4 -4q-2 0 -4 -2h-4l-4 -2h-6h-4h-6h-5q-16 4 -24 12q-17 17 -17 35z" />
<glyph unicode="i" horiz-adv-x="575" d="M199 55l157 908q3 20 20 31.5t38 9.5q21 -5 32 -22t7 -38l-160 -905q-3 -17 -16.5 -28t-30.5 -11h-8q-20 4 -32 20q-8 12 -8 24q0 5 1 11zM401 1212l9 48q4 19 20 30q13 9 27 9q4 0 8 -1q21 -4 33 -20q9 -13 8 -29v-8l-8 -45q-3 -19 -16.5 -30t-32.5 -11h-9q-20 5 -31 21 q-9 13 -9 28q0 4 1 8z" />
<glyph unicode="j" horiz-adv-x="509" d="M-10 -340q0 20 13.5 33.5t35.5 13.5h4l56 24q30 26 34 58l211 1178q1 18 17.5 29t37.5 8q20 -3 31 -19.5t6 -36.5l-209 -1175q-12 -68 -65.5 -114.5t-122.5 -47.5q-21 0 -35 14t-14 35zM393 1217l6 47q4 18 20 28q12 9 26 9q4 0 8 -1q22 -5 34 -20q10 -12 10 -27 q0 -4 -1 -8l-11 -45q-1 -18 -15 -29.5t-30 -11.5h-10q-19 3 -30 21q-8 12 -8 27q0 5 1 10z" />
<glyph unicode="k" horiz-adv-x="1146" d="M195 53l235 1333q6 22 22 34q12 9 26 8q5 0 11 -1q20 -3 31.5 -20t7.5 -37l-166 -948l693 588q15 14 36 12.5t33 -18.5q12 -14 12 -33q0 -22 -16 -37l-461 -391l306 -471q12 -17 8 -37.5t-23 -30.5q-11 -8 -26 -8q-27 0 -43 22l-297 459l-248 -209q0 -2 -2 -2l-39 -229 q-4 -19 -18 -30t-31 -11h-10q-20 3 -32 20q-10 14 -10 29q0 4 1 8z" />
<glyph unicode="l" horiz-adv-x="509" d="M209 57l235 1334q2 22 20 34q12 8 26 8q6 0 12 -1q20 -2 32 -20q10 -14 9 -30v-8l-236 -1333q-3 -19 -16.5 -30t-32.5 -11h-8q-20 4 -32 20q-9 13 -10 29q0 4 1 8z" />
<glyph unicode="m" horiz-adv-x="1947" d="M195 53l96 545v2l63 358q5 20 21.5 31.5t36.5 7.5q20 -3 31.5 -19t7.5 -36l-13 -80q65 63 149.5 99.5t174.5 37.5q155 0 252 -100q48 -48 73 -115q69 97 173.5 155.5t220.5 59.5q152 0 252 -100q98 -98 98 -246q0 -33 -6 -71l-96 -547q-3 -17 -17 -28t-33 -11h-8 q-20 3 -31.5 20t-7.5 37l97 545q4 40 4 55q-2 108 -70.5 177.5t-181.5 70.5q-128 0 -239 -92.5t-134 -220.5q0 -1 -1 -3t-1 -3l-96 -547q-6 -32 -37 -39h-8h-2h-7h-4q-20 3 -31 19.5t-8 37.5l97 545q0 4 2 6q4 32 4 49q-2 109 -71 178t-183 70h-3q-127 1 -237 -93 q-112 -94 -135 -226l-96 -547q0 -6 -2 -8v-2q-1 -1 -2 -3.5t-2 -3.5q0 -2 -2 -2q0 -2 -4 -6q-1 0 -3 -2l-4 -4q-2 0 -2 -2q-4 0 -6 -2q-2 0 -2 -2h-6l-2 -2h-6h-4h-6h-2q-20 3 -32 20q-10 14 -10 29q0 4 1 8z" />
<glyph unicode="n" horiz-adv-x="1255" d="M195 57l96 541v2l61 358q3 20 20.5 32t37.5 7q21 -3 32.5 -18.5t8.5 -36.5l-15 -80q67 64 150.5 100t171.5 37q155 0 252 -100q98 -98 98 -246q0 -33 -6 -71l-96 -543q-3 -17 -17 -28t-33 -11h-6q-20 3 -31.5 20t-7.5 37l95 541q4 40 4 55q-2 109 -70 178t-182 70h-5 q-123 -1 -233 -93q-112 -94 -135 -224l-94 -545q0 -1 -1 -4t-1 -4l-2 -2q0 -1 -1 -3t-1 -3l-2 -3q-1 -1 -2 -3t-2 -3q-3 0 -3 -2l-4 -4q-2 0 -2 -2q-4 0 -6 -2q-2 0 -2 -2h-6q-2 -2 -4 -2h-4h-4h-6h-5q-21 4 -31 20q-8 13 -8 28q0 4 1 9z" />
<glyph unicode="o" horiz-adv-x="1280" d="M143 418q0 42 9 92q24 134 105.5 247t200.5 179.5t249 67.5q173 0 290 -123q111 -114 111 -295q0 -50 -8 -94l-47 10l47 -10q-24 -134 -105.5 -247t-200 -179t-247.5 -66h-2q-174 0 -289 121q-113 119 -113 297zM242 418q2 -142 85.5 -231.5t219.5 -90.5h4q101 0 197 54 q98 56 167.5 152.5t88.5 207.5q8 50 8 76q-2 140 -86 229t-219 90h-5q-155 0 -290 -122t-164 -291q-6 -38 -6 -74z" />
<glyph unicode="p" horiz-adv-x="1351" d="M195 -358l153 868l80 448q3 20 20 32q14 10 29 10q4 0 8 -1q22 -5 33.5 -21.5t7.5 -37.5l-22 -127q81 86 184.5 135.5t214.5 50.5q184 0 295 -120q117 -117 117 -297q0 -47 -8 -88q-37 -203 -198 -343.5t-357 -140.5q-179 0 -295 119q-27 22 -62 78l-102 -584 q-3 -19 -16.5 -30t-32.5 -11h-8q-20 5 -32 22q-10 13 -10 29q0 5 1 9zM440 420q2 -137 88 -223.5t224 -87.5h4q99 0 196 53q99 53 168.5 146.5t87.5 201.5q6 38 6 72q-2 140 -87 228t-224 89h-2q-154 0 -290 -120t-165 -285q-6 -41 -6 -74z" />
<glyph unicode="q" horiz-adv-x="1351" d="M123 420q0 49 8 90q24 133 106 245t202.5 177.5t252.5 66.5q176 0 293 -120q29 -29 62 -82l28 161q3 20 21 32q14 10 29 10q4 0 8 -1q21 -5 33 -21q9 -14 9 -30q0 -4 -1 -8l-236 -1321q-3 -18 -17 -29.5t-32 -11.5h-8q-22 4 -33 21t-8 39l98 555q-77 -87 -183.5 -137.5 t-222.5 -51.5q-177 0 -292 121q-117 120 -117 295zM180 502l49 -8q-6 -41 -6 -74q2 -137 87.5 -226t221.5 -90h3q157 0 293 120q138 120 167 286q6 40 6 74q-2 137 -87.5 225.5t-221.5 89.5h-4q-103 0 -201 -53q-100 -55 -169.5 -148.5t-88.5 -203.5z" />
<glyph unicode="r" horiz-adv-x="899" d="M197 59l79 451v2l80 446q4 20 20 32q13 10 28 10q4 0 8 -1q20 -3 31 -19.5t8 -37.5l-35 -203q6 9 14 17q196 243 434 243q21 0 35 -14t14 -35q0 -20 -14.5 -34.5t-34.5 -14.5h-6q-161 0 -319 -166q-92 -98 -162 -235q-3 -10 -6 -13l-78 -444q-3 -19 -16.5 -30t-32.5 -11 q-6 0 -8 2q-20 3 -32 19q-9 12 -8 26q0 5 1 10z" />
<glyph unicode="s" horiz-adv-x="1007" d="M127 211q15 15 36.5 17t35.5 -11q50 -48 123.5 -83.5t152.5 -35.5q118 0 209 60q87 58 96 127q2 10 2 20q0 53 -51 92q-60 48 -199 74l-2 2q-145 26 -217 82q-77 57 -77 143q0 19 4 39q20 116 141 195q115 72 252 72q46 0 87.5 -9.5t81 -30t59.5 -33.5t57 -40 q16 -11 16 -31v-1q0 -20 -14 -36q-13 -17 -35 -21t-35 7q-44 32 -71.5 49t-73 33t-91.5 16q-105 0 -190 -55q-77 -52 -86 -115q-2 -9 -2 -18q0 -44 45 -82q63 -47 182 -68l4 -2q152 -26 234 -88q82 -60 83 -151q0 -21 -5 -43q-20 -121 -150 -205q-122 -80 -270 -80 q-186 2 -336 141q-12 13 -12 32q0 22 16 38z" />
<glyph unicode="t" horiz-adv-x="819" d="M86 952q0 22 14.5 37t36.5 15h150l63 391q6 20 22 32q13 10 29 10q4 0 9 -1q20 -5 32 -21.5t9 -36.5l-64 -374h258q20 0 34.5 -15t14.5 -37q0 -20 -14.5 -34.5t-34.5 -14.5h-274l-133 -733q-2 -4 -2 -14q3 -51 55 -54q22 0 36.5 -14.5t14.5 -34.5q0 -22 -14.5 -36.5 t-36.5 -14.5q-66 0 -111 45t-45 109q0 5 1 15t1 15l131 717h-131q-22 0 -36.5 14.5t-14.5 34.5z" />
<glyph unicode="u" horiz-adv-x="1255" d="M170 346q0 34 6 72l96 540q6 20 22 32q13 10 28 10q4 0 8 -1q19 -3 30 -20t7 -37l-95 -543q-4 -36 -4 -53q2 -108 69.5 -176.5t180.5 -69.5h5q125 0 235 93q112 95 133 225l96 540q3 20 19 32q13 10 28 10q4 0 8 -1q20 -3 32 -20q9 -13 8 -27q0 -5 -1 -10l-94 -543 q-31 -167 -166 -281t-303 -116q-150 0 -250 100q-98 98 -98 244z" />
<glyph unicode="v" horiz-adv-x="1191" d="M115 936q-2 6 -2 12q0 12 7 24q10 17 30 23q6 1 11 1q14 0 25 -8q16 -10 21 -30l192 -780l473 795q11 17 30 21l12 2l26 -7q17 -10 22 -30q2 -6 2 -12q0 -13 -8 -25l-534 -893q-2 0 -2 -2q-1 -1 -3 -3.5t-3 -3.5q0 -1 -1 -2t-1 -2q-1 -1 -3 -2t-3 -2q-1 0 -2.5 -1 t-2.5 -1l-8 -4h-2q-4 -2 -12 -2q-2 0 -5.5 1t-4.5 1h-2q-10 5 -11 6h-2l-4 4l-2 2q-1 1 -3 3.5t-3 3.5q-4 4 -4 8q-4 4 -4 8z" />
<glyph unicode="w" horiz-adv-x="1763" d="M125 936q-2 7 -2 13q0 13 7 23q10 16 30 23q6 2 12 2q14 0 26 -8q18 -11 21 -31l193 -780l329 553q13 25 41 25q19 1 32.5 -9.5t16.5 -27.5l136 -541l473 795q12 17 30 21q6 1 11 2q12 0 24 -7q17 -11 22 -31q2 -6 2 -12q0 -12 -7 -24l-533 -893q-3 -7 -8 -9q0 -1 -1 -2 t-1 -2q-1 -1 -3 -2t-3 -2q-1 0 -2 -1t-2 -1l-8 -4h-3h-8q-2 -2 -4 -2t-5 1t-5 1h-2l-12 6h-2q-1 1 -2.5 2t-2.5 2l-2 2q-1 1 -3 3.5t-3 3.5q-4 4 -4 8q-4 8 -4 10l-133 545l-332 -559l-2 -2q0 -4 -6 -7q0 -1 -1 -2t-1 -2q-1 -1 -3 -2t-3 -2q-1 0 -2 -1t-2 -1q-2 -2 -8 -2 q0 -2 -3 -2h-6q-1 0 -3 -1t-3 -1q-2 0 -5.5 1t-4.5 1h-2l-12 6h-2q-1 1 -2.5 2t-2.5 2l-2 2q-1 1 -3 3.5t-3 3.5q-4 4 -4 8q-4 8 -4 10z" />
<glyph unicode="x" horiz-adv-x="1167" d="M143 55q0 18 13 31l383 420l-232 418q-10 17 -4.5 36.5t23.5 28.5q13 8 26 8l12 -2q19 -5 29 -24l213 -389l361 397q14 15 34 16h3q18 0 32 -12q14 -15 14 -35q0 -1 1 -1q0 -20 -13 -34l-383 -419l232 -416q9 -19 3.5 -38.5t-22.5 -29.5q-12 -6 -24 -6q-11 0 -23 7.5 t-18 19.5l-213 389l-361 -400q-16 -16 -36 -16q-22 0 -33 14q-17 13 -17 37z" />
<glyph unicode="y" horiz-adv-x="1204" d="M116 -318q-3 8 -3 15q0 12 6 24q9 17 27.5 22.5t37.5 -3.5q69 -37 156 -37h4q100 0 196 51q99 53 166.5 141.5t84.5 190.5l8 47q-141 -131 -322 -131q-72 0 -138.5 25t-113.5 71q-96 96 -96 244q0 36 6 74l94 545q3 19 21 30q13 9 29 9q4 0 8 -1q21 -5 32 -21t7 -36 l-97 -545q-4 -18 -4 -55q2 -107 70.5 -175.5t181.5 -68.5h5q125 0 234 93q110 95 132 225l96 545q3 19 20 30q12 9 27 9q4 0 8 -1q19 -3 29 -16q12 -12 12 -27q2 -4 2 -7t-2 -7l-153 -872q-35 -195 -193.5 -329t-353.5 -136q-109 0 -201 47q-18 10 -23 30z" />
<glyph unicode="z" horiz-adv-x="1134" d="M125 45v4q0 2 2 4v6q2 2 2 4q0 3 2 5q0 1 1 2t1 2l4 4v2l752 829h-555q-20 0 -34.5 13.5t-14.5 33.5q0 22 14.5 36t34.5 14h665h5h4q3 0 6 -3h4q2 -2 4 -2q2 -2 4 -2l4 -4l2 -2h2l2 -4l4 -4q0 -1 1 -2t1 -2t1 -2t1 -2t1.5 -2t1.5 -2q0 -4 2 -4v-4v-7v-2v-2v-6 q-2 -2 -2 -4q0 -1 -3 -4q0 -4 -2 -4q0 -4 -2 -4l-2 -4q-2 -2 -2 -4l-751 -828h555q20 0 34.5 -14.5t14.5 -34.5t-14.5 -34.5t-34.5 -14.5h-666h-2q-1 0 -3 1t-3 1h-4q-2 2 -6 2q-2 2 -4 2q-3 2 -5 2q0 2 -4 2q0 1 -1 2t-1 2l-4 4q-2 0 -2 4q-1 0 -2 1t-2 1q0 5 -2 7v4 q-2 0 -2 4v4q-2 2 -2 6z" />
<glyph unicode="{" horiz-adv-x="983" d="M121 588q10 39 59 39q77 0 134 17.5t95 53.5t62 80.5t43 108.5l45 162q25 85 58 144.5t92 113t152.5 90.5t228.5 63q19 3 28.5 -6t5.5 -27q-9 -25 -34 -32q-97 -24 -162.5 -49t-110.5 -52t-75 -67t-48 -82t-37 -109l-45 -153q-38 -129 -111 -196t-186 -99 q49 -18 79.5 -40t49.5 -56t18.5 -83t-20.5 -116l-45 -154q-31 -99 -27 -165.5t61.5 -110t193.5 -82.5q9 -3 13.5 -12.5t0.5 -20.5q-4 -18 -19.5 -27t-31.5 -6q-120 26 -192 63.5t-100 91t-27 113t26 144.5l45 162q22 81 20.5 138.5t-51 89.5t-151.5 32q-24 0 -33.5 10.5 t-3.5 28.5z" />
<glyph unicode="|" horiz-adv-x="585" d="M252 -238l321 1823q5 19 20 32t34 13t30 -13t7 -32l-322 -1823q-3 -19 -17.5 -32t-33.5 -13t-30.5 13t-8.5 32z" />
<glyph unicode="}" horiz-adv-x="983" d="M115 -252q10 26 35 33q120 29 193.5 59t121 74.5t71 92.5t46.5 132l45 154q38 129 111 196t186 99q-49 18 -79.5 40t-49.5 56t-18.5 83t20.5 116l45 153q31 99 27 165.5t-61.5 110.5t-193.5 83q-9 3 -13.5 12t-0.5 20q4 18 19.5 27t31.5 6q97 -21 161.5 -50t100 -63.5 t48 -82.5t8 -97.5t-24.5 -117.5l-45 -162q-22 -81 -20.5 -138.5t51 -89.5t151.5 -32q24 0 33.5 -10.5t3.5 -28.5q-10 -39 -59 -39q-77 0 -134 -17.5t-95 -53.5t-62 -80.5t-43 -108.5l-45 -162q-25 -85 -58 -144.5t-91.5 -113.5t-152 -91t-228.5 -63q-19 -3 -29 6t-6 27z" />
<glyph unicode="~" horiz-adv-x="942" d="M174 526q0 13 4 25q28 86 66 120t96 34q40 0 134 -42t128 -42q33 0 53 17.5t39 59.5q14 29 37 29q15 0 26 -10t11 -25q0 -12 -4 -24q-28 -86 -66 -120t-96 -34q-40 0 -134 42t-128 42q-33 0 -53 -17.5t-39 -60.5q-14 -28 -37 -28q-15 0 -26 9.5t-11 24.5z" />
<glyph unicode="&#xa1;" horiz-adv-x="516" d="M195 59l182 1028q3 19 16.5 30t32.5 11h8q22 -4 33 -20.5t8 -38.5l-182 -1028q-3 -20 -20 -32t-37 -9q-20 4 -32 21.5t-9 37.5zM422 1346l8 47q3 18 17 29.5t32 11.5h8q22 -5 33.5 -21.5t7.5 -38.5l-8 -47q-3 -20 -20 -32t-37 -9q-20 5 -32 21.5t-9 38.5z" />
<glyph unicode="&#xa2;" horiz-adv-x="1189" d="M168 723l2 4q25 145 117.5 270.5t229 201t282.5 75.5h30l52 139q7 17 21.5 29t33.5 12q25 0 37 -18t2 -45l-49 -131q131 -33 235 -154q16 -19 13 -41q-5 -22 -21 -36.5t-37 -14.5q-24 0 -37 16q-93 107 -194 135l-330 -884q44 -7 74 -7q177 0 354 150q22 18 41 18 t29.5 -14t7.5 -33q-3 -18 -21 -33q-204 -182 -434 -182q-53 0 -80 4l-61 -164q-6 -16 -22 -28t-35 -12q-25 0 -36 18t-1 45l63 168q-149 56 -223 197t-43 315zM279 727q-26 -143 29 -257.5t169 -164.5l322 875h-19q-178 0 -322.5 -130.5t-178.5 -318.5v-4z" />
<glyph unicode="&#xa3;" horiz-adv-x="1318" d="M137 27q6 22 33 28l166 37l129 533h-135q-20 0 -31.5 14.5t-7.5 34.5t22.5 34.5t38.5 14.5h135l58 242q28 115 85.5 210t137.5 160q147 119 336 119q96 0 169 -26.5t116 -66t77 -97.5q12 -20 7 -39q-6 -22 -24 -35.5t-40 -13.5q-23 0 -37 18q-50 80 -116.5 122t-178.5 42 q-141 0 -252 -88q-127 -102 -174 -303l-59 -244h569q20 0 31 -14.5t6 -34.5t-22 -34.5t-37 -14.5h-570l-127 -529h725q20 0 31 -14.5t6 -34.5q-4 -20 -22 -33.5t-39 -13.5h-985q-10 0 -16.5 8t-4.5 19z" />
<glyph unicode="&#xa5;" horiz-adv-x="1404" d="M115 399q3 22 22 39t43 17h316l28 204h-315q-24 0 -38 16t-11 40q5 25 22.5 41t42.5 16h254l-334 574q-9 17 -2.5 37.5t23.5 31.5q19 14 39.5 11.5t27.5 -19.5l359 -616l541 616q13 17 34.5 19.5t36.5 -11.5q15 -11 14.5 -31t-14.5 -38l-508 -574h258q25 0 39.5 -16.5 t10.5 -40.5q-3 -23 -22 -39.5t-44 -16.5h-315l-29 -204h315q24 0 38 -17t11 -39q-5 -25 -22.5 -41t-42.5 -16h-315l-43 -293q-3 -20 -19.5 -34.5t-38.5 -14.5q-20 0 -32 14.5t-9 34.5l43 293h-315q-25 0 -39 16t-10 41z" />
<glyph unicode="&#xa8;" d="M283 1305q6 37 35.5 62.5t66.5 25.5t58.5 -25.5t15.5 -62.5q-8 -37 -38 -62.5t-67 -25.5t-57.5 25.5t-13.5 62.5zM621 1305q6 37 35.5 62.5t66.5 25.5t58.5 -25.5t15.5 -62.5q-8 -37 -38 -62.5t-67 -25.5t-57.5 25.5t-13.5 62.5z" />
<glyph unicode="&#xa9;" horiz-adv-x="1699" d="M109 713v4q0 149 58 285.5t157 236.5t237 159.5t291 59.5t290.5 -59t235.5 -158t155.5 -235t57.5 -285v-4q0 -149 -58 -285.5t-157 -237t-237 -160t-291 -59.5t-290.5 59t-235.5 158.5t-155.5 235.5t-57.5 285zM170 713q0 -186 88 -341.5t244 -247t346 -91.5 q191 0 348 92.5t245.5 249t88.5 342.5v4q0 186 -88 341.5t-244 247t-346 91.5q-191 0 -348 -92.5t-245.5 -249t-88.5 -342.5v-4zM485 725v4q0 158 109 272.5t266 114.5q146 0 264 -102q19 -15 19 -37q0 -19 -13 -31t-32 -12q-16 0 -33 14q-101 86 -207 86 q-120 0 -201.5 -88.5t-81.5 -214.5v-4q0 -125 83.5 -215t201.5 -90t217 90q15 10 29 10q17 0 29 -12t12 -29q0 -20 -14 -30q-64 -55 -126.5 -83t-148.5 -28q-157 0 -265 113t-108 272z" />
<glyph unicode="&#xab;" horiz-adv-x="1054" d="M115 524q3 20 28 45l344 367q22 22 43 22q19 0 30.5 -12.5t8.5 -30.5q-3 -19 -18 -34l-322 -355l195 -358q9 -15 6 -35q-3 -19 -17.5 -31t-33.5 -12q-25 0 -35 23l-217 366q-15 26 -12 45zM532 524q3 19 29 45l344 367q22 22 43 22q19 0 30.5 -12.5t8.5 -30.5 q-3 -19 -18 -34l-322 -355l195 -358q11 -23 6 -35q-5 -19 -18.5 -31t-32.5 -12q-25 0 -35 23l-217 366q-15 28 -13 45z" />
<glyph unicode="&#xad;" horiz-adv-x="835" d="M135 713q0 17 11 27t28 10h436q16 0 27.5 -10t11.5 -27q0 -18 -11.5 -29.5t-27.5 -11.5h-436q-17 0 -28 11t-11 30z" />
<glyph unicode="&#xae;" horiz-adv-x="851" d="M70 1094v2q0 147 104 252.5t252 105.5q150 0 253 -104.5t103 -251.5v-2q0 -147 -104 -253t-252 -106q-150 0 -253 105t-103 252zM111 1094q0 -132 90.5 -225t224.5 -93q132 0 223.5 94t91.5 226v2q0 132 -90.5 224.5t-224.5 92.5q-132 0 -223.5 -93.5t-91.5 -225.5v-2z M295 881q0 -17 16 -17q6 0 11.5 5t5.5 12v178h108l2 -2q33 -8 54 -23q36 -25 36 -69q0 -51 13 -74q9 -21 28 -21h2q1 0 4.5 1t4.5 1q11 4 8 21q-3 10 -17 10q-4 2 -6 10q-6 15 -6 52q0 36 -17.5 62.5t-43.5 39.5q-4 0 -6 2q33 15 53 47t20 70q0 54 -37 91.5t-90 37.5h-125 h-2h-2q-6 0 -10 -5.5t-4 -11.5v-417zM328 1090v192h110q40 0 68.5 -28t28.5 -68q0 -38 -28.5 -67t-66.5 -29h-6h-106z" />
<glyph unicode="&#xb4;" d="M414 1231q-3 12 4 22l100 191q18 37 51 37q29 0 60 -16t33 -31q2 -14 -17 -37l-141 -158q-23 -27 -62 -27q-11 0 -19.5 6t-8.5 13z" />
<glyph unicode="&#xbb;" horiz-adv-x="1054" d="M141 133q3 19 19 35l321 354l-194 359q-11 22 -6 34q5 19 18.5 31t32.5 12q26 0 35 -22l217 -367q15 -26 12 -45t-29 -45l-344 -366q-23 -23 -43 -23q-19 0 -30.5 12.5t-8.5 30.5zM559 133q3 19 19 35l321 354l-194 359q-10 17 -7 34q3 19 18 31t34 12q25 0 34 -22 l217 -367q15 -28 13 -45q-3 -19 -29 -45l-344 -366q-23 -23 -43 -23q-19 0 -30.5 12.5t-8.5 30.5z" />
<glyph unicode="&#xbf;" horiz-adv-x="1093" d="M106 371q0 17 9 78q31 170 165.5 292.5t305.5 137.5l39 227q3 18 16 29.5t31 11.5q6 0 8 -2q20 -3 31 -19t8 -36l-45 -256q0 -3 -2 -5q-1 -19 -14.5 -31t-32.5 -12q-144 1 -267.5 -104t-148.5 -250q-6 -35 -6 -61q2 -121 79 -199.5t203 -79.5q95 0 186 48.5t152 129.5 q12 15 32.5 18t35.5 -9q15 -11 17.5 -31t-9.5 -35q-73 -99 -183 -157t-231 -58q-164 0 -270 106q-109 106 -109 267zM668 1346l8 45q3 18 16 29.5t31 11.5q4 0 8 -2q19 -3 30.5 -19.5t8.5 -36.5l-8 -45q-5 -19 -20.5 -30.5t-34.5 -8.5q-20 4 -31 20.5t-8 35.5z" />
<glyph unicode="&#xc0;" horiz-adv-x="1617" d="M123.5 35.5q-5.5 19.5 3.5 38.5l737 1333q12 27 45 27q19 0 34 -11.5t18 -29.5l266 -1334q3 -21 -8 -38t-31 -21h-10q-19 0 -33 11t-17 30l-65 332h-657l-191 -346q-6 -12 -18.5 -19.5t-24.5 -7.5q-13 0 -25 6q-18 10 -23.5 29.5zM461 473h581l-153 772zM850 1843 q2 15 32.5 31t59.5 16q33 0 51 -37l101 -190q7 -11 4 -23q0 -7 -9 -12.5t-20 -5.5q-38 0 -61 27l-142 157q-18 22 -16 37z" />
<glyph unicode="&#xc1;" horiz-adv-x="1617" d="M123.5 35.5q-5.5 19.5 3.5 38.5l737 1333q12 27 45 27q19 0 34 -11.5t18 -29.5l266 -1334q3 -21 -8 -38t-31 -21h-10q-19 0 -33 11t-17 30l-65 332h-657l-191 -346q-6 -12 -18.5 -19.5t-24.5 -7.5q-13 0 -25 6q-18 10 -23.5 29.5zM461 473h581l-153 772zM831 1640 q-3 11 5 23l100 190q18 37 51 37q29 0 59.5 -16t32.5 -31t-16 -37l-141 -157q-23 -27 -62 -27q-11 0 -20 5.5t-9 12.5z" />
<glyph unicode="&#xc2;" horiz-adv-x="1323" d="M121.5 35.5q-5.5 19.5 3.5 38.5l737 1333q12 27 45 27q19 0 33.5 -11.5t17.5 -29.5l267 -1334q3 -21 -8 -38t-31 -21h-10q-19 0 -33 11t-17 30l-65 332h-658l-190 -346q-6 -12 -18.5 -19.5t-24.5 -7.5q-13 0 -25 6q-18 10 -23.5 29.5zM459 473h581l-153 772zM725 1642 q4 15 14 25l172 180q32 37 62 37h16q17 0 28 -8.5t25 -28.5l123 -180q9 -14 6 -25q0 -8 -8.5 -14t-21.5 -6q-41 0 -64 27l-114 118l-144 -118q-34 -27 -69 -27q-11 0 -18 6t-7 14z" />
<glyph unicode="&#xc3;" horiz-adv-x="1617" d="M123.5 35.5q-5.5 19.5 3.5 38.5l737 1333q12 27 45 27q19 0 34 -11.5t18 -29.5l266 -1334q3 -21 -8 -38t-31 -21h-10q-19 0 -33 11t-17 30l-65 332h-657l-191 -346q-6 -12 -18.5 -19.5t-24.5 -7.5q-13 0 -25 6q-18 10 -23.5 29.5zM461 473h581l-153 772zM684 1640 q1 2 2 7.5t2.5 10t3.5 7.5q38 86 81 120t101 34q40 0 128 -42t122 -42q33 0 56 17.5t47 59.5q19 29 41 29q15 0 24 -10t8 -25q0 -12 -8 -24q-38 -86 -81 -120t-101 -34q-40 0 -128 42t-122 42q-33 0 -55.5 -18t-46.5 -60q-19 -28 -41 -28q-15 0 -24.5 9.5t-8.5 24.5z" />
<glyph unicode="&#xc4;" horiz-adv-x="1323" d="M121.5 35.5q-5.5 19.5 3.5 38.5l737 1333q12 27 45 27q19 0 33.5 -11.5t17.5 -29.5l267 -1334q3 -21 -8 -38t-31 -21h-10q-19 0 -33 11t-17 30l-65 332h-658l-190 -346q-6 -12 -18.5 -19.5t-24.5 -7.5q-13 0 -25 6q-18 10 -23.5 29.5zM459 473h581l-153 772zM715 1714 q6 37 35.5 62.5t66.5 25.5t58.5 -25.5t15.5 -62.5q-8 -37 -38 -62.5t-67 -25.5t-57.5 25.5t-13.5 62.5zM1053 1714q6 37 35.5 62.5t66.5 25.5t58.5 -25.5t15.5 -62.5q-8 -37 -38 -62.5t-67 -25.5t-57.5 25.5t-13.5 62.5z" />
<glyph unicode="&#xc5;" horiz-adv-x="1617" d="M181.5 29.5q-5.5 19.5 6.5 38.5l676 1228q-36 24 -54 65.5t-11 86.5l2 2q12 73 76.5 126.5t136.5 53.5q75 0 122 -53.5t35 -126.5l-2 -2q-7 -49 -43 -91.5t-88 -66.5l244 -1222q3 -19 -8 -39t-31 -27q-4 0 -9.5 -1t-8.5 -1q-14 0 -26 9t-15 24l-68 338h-653l-187 -338 q-20 -33 -53 -33q-2 0 -8.5 1t-9.5 1q-18 8 -23.5 27.5zM516 471h580l-152 770zM887 1448q-6 -44 20 -70q24 -24 58 -24q30 0 59 16q50 26 57 78l2 2q6 40 -17.5 70t-66.5 30q-38 0 -71 -30.5t-39 -69.5z" />
<glyph unicode="&#xc6;" horiz-adv-x="2140" d="M76 51q2 10 14 29l1043 1333q26 33 59 33h1018q20 0 32 -14.5t9 -34.5t-20.5 -34.5t-37.5 -14.5h-841l-101 -564h750q20 0 32 -14.5t9 -34.5t-20 -34.5t-37 -14.5h-750l-102 -575h852q20 0 31.5 -14.5t8.5 -35.5q-3 -20 -20 -34.5t-37 -14.5h-905q-22 0 -35 16t-10 38 l61 348h-614l-299 -385q-20 -27 -49 -27q-20 0 -32 14.5t-9 34.5zM541 510h557l147 840h-53z" />
<glyph unicode="&#xc7;" horiz-adv-x="1511" d="M217 735v4q27 151 105.5 287t190 236.5t256 159.5t296.5 59q167 0 279.5 -51t211.5 -150q18 -22 13 -43q-3 -21 -22.5 -37t-41.5 -16q-25 0 -35 14q-82 90 -182 138t-241 48q-127 0 -248 -50t-216 -135.5t-162.5 -204t-90.5 -251.5l-2 -4q-23 -134 3 -253.5t91.5 -205.5 t169 -136t229.5 -50q141 0 259.5 49t242.5 150q20 16 39 16q20 0 33 -15.5t10 -35.5q-3 -21 -23 -37q-133 -106 -265 -162.5t-290 -60.5l-151 -225q-14 -22 -26.5 -31.5t-33.5 -9.5q-25 0 -44.5 16t-16.5 33q4 17 16 31l162 190q-136 12 -245.5 74t-177 159t-93 226.5 t-0.5 273.5z" />
<glyph unicode="&#xc8;" horiz-adv-x="1372" d="M217 55l236 1334q3 18 17.5 29.5t33.5 11.5h2h735q20 0 34.5 -15t14.5 -37q0 -20 -14.5 -34.5t-34.5 -14.5h-696l-101 -567h594q20 0 34.5 -14.5t14.5 -34.5q0 -22 -14.5 -36.5t-34.5 -14.5h-612l-100 -566h680q20 0 34.5 -14.5t14.5 -36.5q0 -20 -14.5 -34.5 t-34.5 -14.5h-736h-2h-2h-8q-21 5 -32.5 21.5t-8.5 37.5zM786 1843q2 15 33 31t60 16q33 0 51 -37l100 -190q7 -11 4 -23q0 -7 -8.5 -12.5t-19.5 -5.5q-39 0 -62 27l-141 157q-19 23 -17 37z" />
<glyph unicode="&#xc9;" horiz-adv-x="1372" d="M217 55l236 1334q3 18 17.5 29.5t33.5 11.5h2h735q20 0 34.5 -15t14.5 -37q0 -20 -14.5 -34.5t-34.5 -14.5h-696l-101 -567h594q20 0 34.5 -14.5t14.5 -34.5q0 -22 -14.5 -36.5t-34.5 -14.5h-612l-100 -566h680q20 0 34.5 -14.5t14.5 -36.5q0 -20 -14.5 -34.5 t-34.5 -14.5h-736h-2h-2h-8q-21 5 -32.5 21.5t-8.5 37.5zM856 1640q-3 12 4 23l101 190q18 37 51 37q29 0 59.5 -16t32.5 -31q2 -14 -17 -37l-141 -157q-23 -27 -61 -27q-11 0 -20 5.5t-9 12.5z" />
<glyph unicode="&#xca;" horiz-adv-x="1214" d="M217 55l236 1334q3 18 17.5 29.5t33.5 11.5h2h735q20 0 34.5 -15t14.5 -37q0 -20 -14.5 -34.5t-34.5 -14.5h-696l-101 -567h594q20 0 34.5 -14.5t14.5 -34.5q0 -22 -14.5 -36.5t-34.5 -14.5h-612l-100 -566h680q20 0 34.5 -14.5t14.5 -36.5q0 -20 -14.5 -34.5 t-34.5 -14.5h-736h-2h-2h-8q-21 5 -32.5 21.5t-8.5 37.5zM707 1643q3 13 14 24l172 181q32 37 62 37h16q17 0 28 -8.5t25 -28.5l123 -181q8 -14 6 -24q0 -8 -8.5 -14.5t-21.5 -6.5q-41 0 -64 27l-115 119l-143 -119q-34 -27 -70 -27q-11 0 -17.5 6.5t-6.5 14.5z" />
<glyph unicode="&#xcb;" horiz-adv-x="1214" d="M217 55l236 1334q3 18 17.5 29.5t33.5 11.5h2h735q20 0 34.5 -15t14.5 -37q0 -20 -14.5 -34.5t-34.5 -14.5h-696l-101 -567h594q20 0 34.5 -14.5t14.5 -34.5q0 -22 -14.5 -36.5t-34.5 -14.5h-612l-100 -566h680q20 0 34.5 -14.5t14.5 -36.5q0 -20 -14.5 -34.5 t-34.5 -14.5h-736h-2h-2h-8q-21 5 -32.5 21.5t-8.5 37.5zM696 1714q6 37 36 62.5t67 25.5t58 -25.5t15 -62.5q-8 -37 -37.5 -62.5t-66.5 -25.5t-58 25.5t-14 62.5zM1034 1714q6 37 36 62.5t67 25.5t58 -25.5t15 -62.5q-8 -37 -37.5 -62.5t-66.5 -25.5t-58 25.5t-14 62.5z " />
<glyph unicode="&#xcc;" horiz-adv-x="561" d="M35 53l235 1333q3 21 20 32.5t38 8.5q20 -3 32 -20t9 -37l-236 -1333q-3 -19 -16.5 -30t-32.5 -11h-8q-21 3 -32.5 19.5t-8.5 37.5zM195 1843q2 15 32.5 31t59.5 16q33 0 51 -37l100 -190q7 -11 4 -23q0 -7 -8.5 -12.5t-19.5 -5.5q-39 0 -62 27l-141 157q-18 22 -16 37z " />
<glyph unicode="&#xcd;" horiz-adv-x="561" d="M231 53l236 1333q3 21 19.5 32.5t37.5 8.5q20 -3 32 -20t9 -37l-235 -1333q-3 -19 -16.5 -30t-32.5 -11h-9q-21 3 -32.5 19.5t-8.5 37.5zM424 1640q-3 12 4 23l100 190q18 37 52 37q29 0 59.5 -16t32.5 -31q2 -14 -17 -37l-141 -157q-23 -27 -61 -27q-11 0 -20 5.5 t-9 12.5z" />
<glyph unicode="&#xce;" horiz-adv-x="561" d="M61 53l236 1333q3 21 19.5 32.5t37.5 8.5q20 -3 32 -20t9 -37l-235 -1333q-3 -19 -16.5 -30t-32.5 -11h-9q-21 3 -32.5 19.5t-8.5 37.5zM162 1642q4 15 14 25l172 180q32 37 62 37h16q17 0 28 -8.5t25 -28.5l123 -180q9 -14 6 -25q0 -8 -8.5 -14t-21.5 -6q-41 0 -64 27 l-115 118l-143 -118q-34 -27 -70 -27q-24 0 -24 20z" />
<glyph unicode="&#xcf;" horiz-adv-x="561" d="M45 53l236 1333q3 21 19.5 32.5t37.5 8.5q20 -3 32 -20t9 -37l-236 -1333q-3 -19 -16.5 -30t-32.5 -11h-8q-21 3 -32.5 19.5t-8.5 37.5z" />
<glyph unicode="&#xd0;" horiz-adv-x="1662" d="M117 719q3 17 15.5 27t29.5 10h172l110 630q5 20 22.5 35t37.5 15h268q116 0 219.5 -37t179 -102.5t128 -156t67 -197t-3.5 -226.5q-26 -145 -106.5 -277.5t-193.5 -228.5t-255.5 -152.5t-288.5 -56.5h-272q-19 2 -29.5 15.5t-7.5 33.5l110 627h-172q-17 0 -25 11t-5 30z M319 102h218q125 0 248 48.5t220 131t166 196.5t91 239q29 168 -28.5 310t-185 224.5t-294.5 83.5h-217l-103 -579h164q16 0 26 -10t7 -27q-3 -18 -17 -29.5t-30 -11.5h-164z" />
<glyph unicode="&#xd1;" horiz-adv-x="1617" d="M217 61l234 1328l2 2q0 24 24 41q19 9 39 3t29 -24l659 -1210l209 1188q3 20 20 32t37 9q22 -4 33 -21t8 -39l-233 -1325q-3 -18 -17 -29.5t-32 -11.5h-8q-22 3 -37 25q0 4 -4 8l-654 1200l-211 -1192q-3 -19 -16.5 -30t-32.5 -11h-8q-20 3 -32 20t-9 37zM795 1641l8 24 q38 86 81.5 120t101.5 34q40 0 127.5 -42t121.5 -42q33 0 56 18t47 60q19 29 41 29q15 0 24.5 -10t8.5 -25q0 -11 -9 -25q-38 -86 -81 -119.5t-101 -33.5q-40 0 -128 42t-122 42q-33 0 -55.5 -18t-46.5 -60q-19 -29 -41 -29q-15 0 -24.5 10t-8.5 25z" />
<glyph unicode="&#xd2;" horiz-adv-x="1740" d="M150 592q0 66 12 133q35 193 151.5 355.5t287 257.5t355.5 96q122 0 229 -45.5t183 -126.5t118 -190t42 -232q0 -66 -12 -133l-50 10l50 -10q-36 -193 -153 -355.5t-287.5 -257t-354.5 -94.5q-123 0 -229.5 44.5t-182.5 125.5q-77 80 -118 189t-41 233zM250 592 q2 -215 132.5 -354t338.5 -140q156 0 306 84t255.5 229t134.5 314q10 65 10 115q-2 215 -132.5 353.5t-338.5 139.5h-4q-116 0 -232.5 -50t-210 -133.5t-160.5 -200t-89 -242.5q-10 -65 -10 -115zM1002 1844q2 15 32.5 31t59.5 16q33 0 51 -37l101 -191q7 -10 4 -22 q0 -7 -9 -13t-20 -6q-38 0 -61 27l-142 158q-18 22 -16 37z" />
<glyph unicode="&#xd3;" horiz-adv-x="1740" d="M150 592q0 66 12 133q35 193 151.5 355.5t287 257.5t355.5 96q122 0 229 -45.5t183 -126.5t118 -190t42 -232q0 -66 -12 -133l-50 10l50 -10q-36 -193 -153 -355.5t-287.5 -257t-354.5 -94.5q-123 0 -229.5 44.5t-182.5 125.5q-77 80 -118 189t-41 233zM250 592 q2 -215 132.5 -354t338.5 -140q156 0 306 84t255.5 229t134.5 314q10 65 10 115q-2 215 -132.5 353.5t-338.5 139.5h-4q-116 0 -232.5 -50t-210 -133.5t-160.5 -200t-89 -242.5q-10 -65 -10 -115zM924 1640q-3 12 4 23l100 190q18 37 51 37q29 0 59.5 -16t32.5 -31t-16 -37 l-141 -157q-23 -27 -62 -27q-11 0 -19.5 5.5t-8.5 12.5z" />
<glyph unicode="&#xd4;" horiz-adv-x="1740" d="M150 592q0 66 12 133q35 193 151.5 355.5t287 257.5t355.5 96q122 0 229 -45.5t183 -126.5t118 -190t42 -232q0 -66 -12 -133l-50 10l50 -10q-36 -193 -153 -355.5t-287.5 -257t-354.5 -94.5q-123 0 -229.5 44.5t-182.5 125.5q-77 80 -118 189t-41 233zM250 592 q2 -215 132.5 -354t338.5 -140q156 0 306 84t255.5 229t134.5 314q10 65 10 115q-2 215 -132.5 353.5t-338.5 139.5h-4q-116 0 -232.5 -50t-210 -133.5t-160.5 -200t-89 -242.5q-10 -65 -10 -115zM854 1643q3 13 14 24l172 181q32 37 62 37h16q17 0 28 -8.5t25 -28.5 l123 -181q8 -14 6 -24q0 -8 -8.5 -14.5t-21.5 -6.5q-41 0 -64 27l-115 119l-143 -119q-34 -27 -70 -27q-11 0 -17.5 6.5t-6.5 14.5z" />
<glyph unicode="&#xd5;" horiz-adv-x="1740" d="M150 592q0 66 12 133q35 193 151.5 355.5t287 257.5t355.5 96q122 0 229 -45.5t183 -126.5t118 -190t42 -232q0 -66 -12 -133l-50 10l50 -10q-36 -193 -153 -355.5t-287.5 -257t-354.5 -94.5q-123 0 -229.5 44.5t-182.5 125.5q-77 80 -118 189t-41 233zM250 592 q2 -215 132.5 -354t338.5 -140q156 0 306 84t255.5 229t134.5 314q10 65 10 115q-2 215 -132.5 353.5t-338.5 139.5h-4q-116 0 -232.5 -50t-210 -133.5t-160.5 -200t-89 -242.5q-10 -65 -10 -115zM793 1640q1 2 2 7.5t2.5 10t3.5 7.5q38 86 81 120t101 34q40 0 128 -42 t122 -42q33 0 55.5 17.5t46.5 59.5q19 29 41 29q15 0 24.5 -10t8.5 -25q0 -12 -8 -24q-38 -86 -81 -120t-101 -34q-40 0 -128 42t-122 42q-33 0 -56 -18t-47 -60q-19 -28 -41 -28q-15 0 -24 9.5t-8 24.5z" />
<glyph unicode="&#xd6;" horiz-adv-x="1740" d="M150 592q0 66 12 133q35 193 151.5 355.5t287 257.5t355.5 96q122 0 229 -45.5t183 -126.5t118 -190t42 -232q0 -66 -12 -133l-50 10l50 -10q-36 -193 -153 -355.5t-287.5 -257t-354.5 -94.5q-123 0 -229.5 44.5t-182.5 125.5q-77 80 -118 189t-41 233zM250 592 q2 -215 132.5 -354t338.5 -140q156 0 306 84t255.5 229t134.5 314q10 65 10 115q-2 215 -132.5 353.5t-338.5 139.5h-4q-116 0 -232.5 -50t-210 -133.5t-160.5 -200t-89 -242.5q-10 -65 -10 -115zM924 1715q6 37 35.5 62.5t66.5 25.5t58.5 -25.5t15.5 -62.5 q-8 -37 -38 -62.5t-67 -25.5t-57.5 25.5t-13.5 62.5zM1262 1715q6 37 35.5 62.5t66.5 25.5t58.5 -25.5t15.5 -62.5q-8 -37 -38 -62.5t-67 -25.5t-57.5 25.5t-13.5 62.5z" />
<glyph unicode="&#xd7;" horiz-adv-x="1269" d="M209 340q3 21 22 37l408 342l-285 340q-15 19 -10 41q3 22 20 36.5t39 14.5q23 0 37 -18l281 -345l403 347q16 16 39 16q20 0 32 -14.5t9 -34.5q-2 -18 -22 -37l-408 -342l285 -340q15 -19 10 -41q-3 -22 -20 -36.5t-39 -14.5q-23 0 -37 18l-281 344l-403 -346 q-19 -16 -39 -16t-32 14.5t-9 34.5z" />
<glyph unicode="&#xd8;" horiz-adv-x="1740" d="M154 43q4 21 18 33l166 149q-71 102 -96.5 232.5t0.5 273.5v4q26 146 102.5 280.5t187 237t258.5 163.5t306 61q269 0 436 -170l164 147q19 16 39 16q19 0 29.5 -12t7.5 -31q-6 -19 -19 -32l-168 -152q72 -100 98 -230.5t0 -273.5v-4q-26 -146 -102.5 -280.5t-187 -236.5 t-258.5 -163t-306 -61q-271 0 -436 168l-164 -146q-19 -16 -39 -16q-19 0 -29 12t-7 31zM352 735q-44 -249 76 -430l1020 922q-143 153 -375 153q-130 0 -252.5 -50.5t-217.5 -137t-161.5 -204.5t-89.5 -249v-4zM475 244q141 -154 375 -154q173 0 328.5 86t259.5 232.5 t135 322.5v4q43 243 -76 428z" />
<glyph unicode="&#xd9;" horiz-adv-x="1556" d="M190 489q0 37 11 101l141 805q3 20 20 32t37 9q22 -4 33 -21t8 -39l-141 -803q-8 -39 -8 -84q2 -169 110.5 -277.5t284.5 -109.5q130 -1 254 65t209.5 179t107.5 244l144 805q3 20 20 32t37 9q20 -5 32 -21.5t9 -38.5l-143 -803q-28 -156 -127 -287t-243 -207t-300 -77 h-2q-104 0 -195.5 36.5t-158.5 102.5q-140 140 -140 348zM852 1843q2 15 32.5 31t59.5 16q33 0 51 -37l101 -190q7 -11 4 -23q0 -7 -9 -12.5t-20 -5.5q-38 0 -61 27l-142 157q-18 22 -16 37z" />
<glyph unicode="&#xda;" horiz-adv-x="1556" d="M190 489q0 37 11 101l141 805q3 20 20 32t37 9q22 -4 33 -21t8 -39l-141 -803q-8 -39 -8 -84q2 -169 110.5 -277.5t284.5 -109.5q130 -1 254 65t209.5 179t107.5 244l144 805q3 20 20 32t37 9q20 -5 32 -21.5t9 -38.5l-143 -803q-28 -156 -127 -287t-243 -207t-300 -77 h-2q-104 0 -195.5 36.5t-158.5 102.5q-140 140 -140 348zM895 1640q-3 12 4 23l100 190q18 37 52 37q29 0 59.5 -16t32.5 -31q2 -14 -17 -37l-141 -157q-23 -27 -61 -27q-11 0 -20 5.5t-9 12.5z" />
<glyph unicode="&#xdb;" horiz-adv-x="1556" d="M190 489q0 37 11 101l141 805q3 20 20 32t37 9q22 -4 33 -21t8 -39l-141 -803q-8 -39 -8 -84q2 -169 110.5 -277.5t284.5 -109.5q130 -1 254 65t209.5 179t107.5 244l144 805q3 20 20 32t37 9q20 -5 32 -21.5t9 -38.5l-143 -803q-28 -156 -127 -287t-243 -207t-300 -77 h-2q-104 0 -195.5 36.5t-158.5 102.5q-140 140 -140 348zM786 1642q3 13 15 25l172 180q32 37 61 37h17q17 0 28 -8.5t25 -28.5l123 -180q9 -14 6 -25q0 -8 -9 -14t-22 -6q-40 0 -63 27l-115 118l-143 -118q-34 -27 -70 -27q-11 0 -18 6t-7 14z" />
<glyph unicode="&#xdc;" horiz-adv-x="1667" d="M215 489q0 43 10 101l142 805q3 20 20 32t37 9q22 -4 33 -21t8 -39l-141 -803q-9 -43 -9 -84q2 -169 111 -277.5t285 -109.5q130 -1 254 65t209.5 179t107.5 244l143 805q3 20 20.5 32t37.5 9q20 -5 32 -21.5t9 -38.5l-144 -803q-28 -156 -126.5 -287t-242.5 -207 t-300 -77h-2q-104 0 -196 36.5t-159 102.5q-139 139 -139 348zM772 1714q6 37 35.5 62.5t66.5 25.5t58.5 -25.5t15.5 -62.5q-8 -37 -37.5 -62.5t-66.5 -25.5t-58 25.5t-14 62.5zM1110 1714q6 37 35.5 62.5t66.5 25.5t58.5 -25.5t15.5 -62.5q-8 -37 -37.5 -62.5t-66.5 -25.5 t-58 25.5t-14 62.5z" />
<glyph unicode="&#xdd;" horiz-adv-x="1466" d="M120.5 1394.5q5.5 19.5 22.5 28.5q19 11 39.5 6t30.5 -24l338 -612l563 620q14 15 35.5 16t36.5 -12q15 -14 16 -34t-12 -35l-602 -664l-113 -645q-3 -18 -17 -29.5t-32 -11.5h-10q-20 3 -32 20t-9 37l114 643l-364 658q-10 19 -4.5 38.5zM717 1640q-3 12 4 23l100 190 q18 37 51 37q29 0 60 -16t33 -31q2 -14 -17 -37l-141 -157q-23 -27 -62 -27q-11 0 -19.5 5.5t-8.5 12.5z" />
<glyph unicode="&#xe0;" horiz-adv-x="1175" d="M129 416q0 51 8 92q24 134 104.5 246t198.5 178t248 67q175 0 289 -120q38 -41 59 -82l29 161q3 20 19 32t36 9q20 -5 32 -21t9 -36l-160 -901q-3 -19 -16.5 -30t-32.5 -11h-8q-20 4 -31 20.5t-8 36.5l23 131q-77 -87 -181.5 -137t-218.5 -51q-173 0 -288 121 q-111 117 -111 295zM225 416q2 -139 86 -228t217 -90q156 -2 292 119.5t165 290.5q6 40 6 76q-2 139 -85 227.5t-218 89.5h-2q-156 0 -290 -120.5t-163 -288.5q-8 -36 -8 -76zM750 1434q2 15 32.5 31t59.5 16q33 0 51 -37l100 -191q7 -10 4 -22q0 -7 -8.5 -13t-19.5 -6 q-39 0 -62 27l-141 158q-18 22 -16 37z" />
<glyph unicode="&#xe1;" horiz-adv-x="1175" d="M129 416q0 51 8 92q24 134 104.5 246t198.5 178t248 67q175 0 289 -120q38 -41 59 -82l29 161q3 20 19 32t36 9q20 -5 32 -21t9 -36l-160 -901q-3 -19 -16.5 -30t-32.5 -11h-8q-20 4 -31 20.5t-8 36.5l23 131q-77 -87 -181.5 -137t-218.5 -51q-173 0 -288 121 q-111 117 -111 295zM225 416q2 -139 86 -228t217 -90q156 -2 292 119.5t165 290.5q6 40 6 76q-2 139 -85 227.5t-218 89.5h-2q-156 0 -290 -120.5t-163 -288.5q-8 -36 -8 -76zM588 1231q-3 12 4 22l100 191q18 37 51 37q29 0 60 -16t33 -31q2 -14 -17 -37l-141 -158 q-23 -27 -62 -27q-11 0 -19.5 6t-8.5 13z" />
<glyph unicode="&#xe2;" horiz-adv-x="1175" d="M129 416q0 51 8 92q24 134 104.5 246t198.5 178t248 67q175 0 289 -120q38 -41 59 -82l29 161q3 20 19 32t36 9q20 -5 32 -21t9 -36l-160 -901q-3 -19 -16.5 -30t-32.5 -11h-8q-20 4 -31 20.5t-8 36.5l23 131q-77 -87 -181.5 -137t-218.5 -51q-173 0 -288 121 q-111 117 -111 295zM225 416q2 -139 86 -228t217 -90q156 -2 292 119.5t165 290.5q6 40 6 76q-2 139 -85 227.5t-218 89.5h-2q-156 0 -290 -120.5t-163 -288.5q-8 -36 -8 -76zM610 1233q3 12 15 24l172 181q32 37 61 37h16q28 0 54 -37l123 -181q8 -14 6 -24q0 -8 -9 -14.5 t-22 -6.5q-40 0 -63 27l-115 119l-143 -119q-34 -27 -70 -27q-11 0 -18 6.5t-7 14.5z" />
<glyph unicode="&#xe3;" horiz-adv-x="1175" d="M129 416q0 51 8 92q24 134 104.5 246t198.5 178t248 67q175 0 289 -120q38 -41 59 -82l29 161q3 20 19 32t36 9q20 -5 32 -21t9 -36l-160 -901q-3 -19 -16.5 -30t-32.5 -11h-8q-20 4 -31 20.5t-8 36.5l23 131q-77 -87 -181.5 -137t-218.5 -51q-173 0 -288 121 q-111 117 -111 295zM225 416q2 -139 86 -228t217 -90q156 -2 292 119.5t165 290.5q6 40 6 76q-2 139 -85 227.5t-218 89.5h-2q-156 0 -290 -120.5t-163 -288.5q-8 -36 -8 -76zM549 1231l8 24q38 86 81 120t101 34q40 0 128 -42t122 -42q33 0 56 18t47 60q19 29 41 29 q15 0 24 -10t8 -25q0 -13 -8 -25q-38 -86 -81 -119.5t-101 -33.5q-40 0 -128 42t-122 42q-33 0 -55.5 -18t-46.5 -60q-19 -29 -41 -29q-15 0 -24.5 10t-8.5 25z" />
<glyph unicode="&#xe4;" horiz-adv-x="1267" d="M82 416q0 51 8 92q24 134 104.5 246t198.5 178t248 67q175 0 289 -120q38 -41 59 -82l29 161q3 20 19 32t36 9q20 -5 32 -21t9 -36l-160 -901q-3 -19 -16.5 -30t-32.5 -11h-8q-20 4 -31 20.5t-8 36.5l23 131q-77 -87 -181.5 -137t-218.5 -51q-173 0 -288 121 q-111 117 -111 295zM178 416q2 -139 86 -228t217 -90q156 -2 292 119.5t165 290.5q6 40 6 76q-2 139 -85 227.5t-218 89.5h-2q-156 0 -290 -120.5t-163 -288.5q-8 -36 -8 -76zM570 1305q6 37 35.5 62.5t66.5 25.5t58.5 -25.5t15.5 -62.5q-8 -37 -38 -62.5t-67 -25.5 t-57.5 25.5t-13.5 62.5zM908 1305q6 37 35.5 62.5t66.5 25.5t58.5 -25.5t15.5 -62.5q-8 -37 -38 -62.5t-67 -25.5t-57.5 25.5t-13.5 62.5z" />
<glyph unicode="&#xe5;" horiz-adv-x="1175" d="M59 502q37 206 202 354t362 148q113 0 203 -53t141 -144l24 147q4 22 21 36t37 14q21 0 33 -14.5t8 -35.5l-160 -905q-3 -20 -20.5 -34.5t-37.5 -14.5t-32 14.5t-9 34.5l27 150q-81 -91 -190 -145t-222 -54q-129 0 -227 68t-140.5 183.5t-19.5 250.5zM158 502 q-29 -168 61.5 -286t245.5 -118q156 0 286.5 118t159.5 286q31 168 -59 286.5t-246 118.5q-154 0 -285.5 -118.5t-162.5 -286.5zM498 1325v2q13 73 78.5 126.5t136.5 53.5q75 0 121.5 -53.5t33.5 -126.5v-2q-12 -71 -78 -124.5t-141 -53.5q-71 0 -117 54t-34 124zM586 1325 q-6 -36 17 -65t61 -29q43 0 76.5 28.5t39.5 65.5v2q8 39 -15.5 69.5t-66.5 30.5q-38 0 -71 -30.5t-41 -69.5v-2z" />
<glyph unicode="&#xe6;" horiz-adv-x="1953" d="M104 418q0 46 9 92q24 134 105 247t199.5 179.5t248.5 67.5q175 0 290 -121q40 -44 60 -82l28 162q3 20 19.5 32t36.5 9q20 -5 32 -21.5t9 -36.5l-29 -158q83 100 197 158.5t239 59.5q179 0 297 -121q117 -120 117 -299q0 -18 -4 -54q0 -2 -1 -6t-1 -6 q-5 -16 -17.5 -26.5t-29.5 -10.5h-832q-4 -20 -4 -61q0 -140 88 -230.5t228 -91.5q100 0 197 50.5t165 136.5q14 15 34.5 17t35.5 -11q15 -12 17 -32.5t-11 -35.5q-81 -102 -197 -162.5t-241 -60.5h-3q-178 0 -296 121q-51 51 -76 108l-33 -190q-3 -19 -16.5 -30t-32.5 -11 h-8q-20 4 -31 20.5t-8 36.5l22 131q-79 -88 -183 -137.5t-218 -50.5q-176 0 -291 121q-111 117 -111 297zM201 418q2 -140 86.5 -229.5t218.5 -90.5q102 -1 201 54t169 151t89 207q6 40 6 76q-2 140 -85.5 229t-219.5 90h-2q-156 0 -291 -121.5t-164 -289.5q-8 -36 -8 -76z M1104 582h760v4q-2 140 -89 230t-227 91q-139 1 -265 -92t-179 -233z" />
<glyph unicode="&#xe7;" horiz-adv-x="1169" d="M166 549v4q26 145 118 270.5t228.5 201t282.5 75.5q124 0 210 -44.5t154 -121.5q12 -12 8 -37q-3 -22 -20 -36.5t-39 -14.5q-24 0 -33 12q-61 69 -131.5 108.5t-167.5 39.5q-178 0 -323 -130.5t-177 -318.5l-2 -4q-21 -124 17.5 -228t127 -164.5t206.5 -60.5 q179 0 354 150q20 16 37 16q19 0 31 -15t8 -34q0 -17 -17 -31q-96 -83 -194.5 -128.5t-216.5 -51.5l-150 -225q-14 -21 -27 -31t-34 -10q-25 0 -44 16t-16 33q0 10 15 31l164 190q-194 26 -299 181t-70 358z" />
<glyph unicode="&#xe8;" horiz-adv-x="1196" d="M125 420q0 48 8 92q24 134 106.5 246.5t203.5 178.5t255 67q177 0 295 -121q117 -120 117 -297q0 -18 -4 -54q0 -2 -1 -6t-1 -6q-5 -16 -18 -27.5t-29 -11.5h-830q-4 -20 -4 -61q0 -139 87.5 -229t226.5 -91q101 0 198 50.5t164 134.5q14 15 34.5 17t35.5 -11 q15 -12 17 -31.5t-11 -34.5q-80 -102 -196 -162.5t-242 -60.5h-2q-177 0 -295 121q-115 118 -115 297zM254 582h758v4q-2 139 -88.5 228.5t-225.5 90.5q-140 1 -265.5 -91.5t-178.5 -231.5zM686 1434q2 15 32.5 31t59.5 16q33 0 51 -37l101 -191q7 -10 4 -22q0 -7 -9 -13 t-20 -6q-38 0 -61 27l-142 158q-18 22 -16 37z" />
<glyph unicode="&#xe9;" horiz-adv-x="1196" d="M125 420q0 48 8 92q24 134 106.5 246.5t203.5 178.5t255 67q177 0 295 -121q117 -120 117 -297q0 -18 -4 -54q0 -2 -1 -6t-1 -6q-5 -16 -18 -27.5t-29 -11.5h-830q-4 -20 -4 -61q0 -139 87.5 -229t226.5 -91q101 0 198 50.5t164 134.5q14 15 34.5 17t35.5 -11 q15 -12 17 -31.5t-11 -34.5q-80 -102 -196 -162.5t-242 -60.5h-2q-177 0 -295 121q-115 118 -115 297zM254 582h758v4q-2 139 -88.5 228.5t-225.5 90.5q-140 1 -265.5 -91.5t-178.5 -231.5zM569 1231q-3 12 4 22l101 191q18 37 51 37q29 0 59.5 -16t32.5 -31t-16 -37 l-142 -158q-23 -27 -61 -27q-11 0 -20 6t-9 13z" />
<glyph unicode="&#xea;" horiz-adv-x="1196" d="M125 420q0 48 8 92q24 134 106.5 246.5t203.5 178.5t255 67q177 0 295 -121q117 -120 117 -297q0 -18 -4 -54q0 -2 -1 -6t-1 -6q-5 -16 -18 -27.5t-29 -11.5h-830q-4 -20 -4 -61q0 -139 87.5 -229t226.5 -91q101 0 198 50.5t164 134.5q14 15 34.5 17t35.5 -11 q15 -12 17 -31.5t-11 -34.5q-80 -102 -196 -162.5t-242 -60.5h-2q-177 0 -295 121q-115 118 -115 297zM254 582h758v4q-2 139 -88.5 228.5t-225.5 90.5q-140 1 -265.5 -91.5t-178.5 -231.5zM571 1233q3 12 15 24l172 181q32 37 61 37h17q17 0 28 -8.5t25 -28.5l123 -181 q8 -14 6 -24q0 -8 -9 -14.5t-22 -6.5q-40 0 -63 27l-115 119l-143 -119q-34 -27 -70 -27q-11 0 -18 6.5t-7 14.5z" />
<glyph unicode="&#xeb;" horiz-adv-x="1247" d="M119 420q0 48 8 92q24 134 106.5 246.5t203.5 178.5t255 67q177 0 295 -121q117 -120 117 -297q0 -18 -4 -54q0 -2 -1 -6t-1 -6q-5 -16 -18 -27.5t-29 -11.5h-830q-4 -20 -4 -61q0 -139 87 -229t226 -91q101 0 198.5 50.5t164.5 134.5q14 15 34.5 17t35.5 -11 q15 -12 17 -31.5t-11 -34.5q-80 -102 -196.5 -162.5t-242.5 -60.5h-2q-177 0 -295 121q-114 117 -114 297zM248 582h758v4q-2 139 -88.5 228.5t-225.5 90.5q-140 1 -265.5 -91.5t-178.5 -231.5zM555 1305q6 37 35.5 62.5t66.5 25.5t58.5 -25.5t15.5 -62.5 q-8 -37 -37.5 -62.5t-66.5 -25.5t-58 25.5t-14 62.5zM893 1305q6 37 35.5 62.5t66.5 25.5t58.5 -25.5t15.5 -62.5q-8 -37 -37.5 -62.5t-66.5 -25.5t-58 25.5t-14 62.5z" />
<glyph unicode="&#xec;" horiz-adv-x="509" d="M10 55l158 906q3 20 19.5 31t37.5 9q21 -5 32 -21.5t7 -37.5l-160 -903q-3 -17 -16.5 -28t-30.5 -11h-8q-20 3 -32 19.5t-7 35.5zM127 1434q2 15 32.5 31t59.5 16q33 0 51 -37l101 -191q7 -10 4 -22q0 -7 -9 -13t-20 -6q-38 0 -61 27l-142 158q-18 22 -16 37z" />
<glyph unicode="&#xed;" horiz-adv-x="509" d="M211 55l158 906q3 20 19.5 31t37.5 9q21 -5 32 -21.5t7 -37.5l-160 -903q-3 -17 -16.5 -28t-30.5 -11h-8q-20 3 -32 19.5t-7 35.5zM362 1231q-3 11 5 22l100 191q18 37 51 37q29 0 59.5 -16t32.5 -31t-16 -37l-141 -158q-23 -27 -62 -27q-11 0 -20 6t-9 13z" />
<glyph unicode="&#xee;" horiz-adv-x="509" d="M37 55l158 906q3 20 19.5 31t37.5 9q21 -5 32 -21.5t7 -37.5l-160 -903q-3 -17 -16.5 -28t-30.5 -11h-8q-20 3 -32 19.5t-7 35.5zM57 1233q3 12 15 24l172 181q32 37 61 37h17q17 0 28 -8.5t25 -28.5l123 -181q8 -14 6 -24q0 -8 -9 -14.5t-22 -6.5q-40 0 -63 27l-115 119 l-143 -119q-34 -27 -70 -27q-11 0 -18 6.5t-7 14.5z" />
<glyph unicode="&#xef;" horiz-adv-x="575" d="M199 55l157 908q3 20 20 31.5t38 9.5q21 -5 32 -22t7 -38l-160 -905q-3 -17 -16.5 -28t-30.5 -11h-8q-20 3 -32 19.5t-7 35.5zM201 1305q6 37 35.5 62.5t66.5 25.5t58.5 -25.5t15.5 -62.5q-8 -37 -38 -62.5t-67 -25.5t-57.5 25.5t-13.5 62.5zM539 1305q6 37 35.5 62.5 t66.5 25.5t58.5 -25.5t15.5 -62.5q-8 -37 -38 -62.5t-67 -25.5t-57.5 25.5t-13.5 62.5z" />
<glyph unicode="&#xf0;" horiz-adv-x="1286" d="M168 520q26 144 115.5 259t212 176t252.5 61q114 0 192.5 -34t146.5 -95l-227 426l-272 -127q-12 -6 -25 -6q-19 0 -29.5 14t-7.5 33q5 27 37 41l260 116l-28 54q-10 19 -7 37q5 20 22.5 34.5t39.5 14.5q26 0 41 -27l33 -65l190 90q15 6 27 6q19 0 29.5 -14t7.5 -33 q-5 -27 -37 -41l-180 -82l163 -330q67 -133 91 -247t-1 -253q-18 -106 -73 -202.5t-136 -169.5t-189 -116.5t-226 -43.5q-144 0 -250 72t-151 191.5t-21 260.5zM276 514q-20 -110 15.5 -206.5t121.5 -157t203 -60.5q180 0 318 126.5t170 301.5q19 110 -21 204t-130 149 t-210 55q-179 0 -307 -117t-160 -295z" />
<glyph unicode="&#xf1;" horiz-adv-x="1255" d="M195 57l96 541v2l61 358q3 20 20.5 32t37.5 7q21 -3 32.5 -18.5t8.5 -36.5l-15 -80q67 64 150.5 100t171.5 37q155 0 252 -100q98 -98 98 -246q0 -33 -6 -71l-96 -543q-3 -17 -17 -28t-33 -11h-6q-20 3 -31.5 20t-7.5 37l95 541q4 40 4 55q-2 109 -70 178t-182 70 q-127 2 -238.5 -92.5t-134.5 -224.5l-94 -545q0 -1 -1 -4t-1 -4l-2 -2q0 -1 -1 -3t-1 -3l-2 -3q-1 -1 -2 -3t-2 -3q-3 0 -3 -2l-4 -4q-2 0 -2 -2q-4 0 -6 -2q-2 0 -2 -2h-6q-2 -2 -4 -2h-4h-4h-6h-5q-20 3 -30.5 19.5t-7.5 37.5zM553 1231l8 24q38 86 81.5 120t101.5 34 q40 0 127.5 -42t121.5 -42q33 0 56 18t47 60q19 29 41 29q15 0 24.5 -10t8.5 -25q0 -11 -9 -25q-38 -86 -81 -119.5t-101 -33.5q-40 0 -128 42t-122 42q-33 0 -55.5 -18t-46.5 -60q-19 -29 -41 -29q-15 0 -24.5 10t-8.5 25z" />
<glyph unicode="&#xf2;" horiz-adv-x="1310" d="M119 418q0 48 8 92q24 134 105.5 247t200.5 179.5t249 67.5q174 0 291 -123q110 -113 110 -295q0 -50 -8 -94l-47 10l47 -10q-24 -134 -105.5 -247t-200 -179t-247.5 -66h-2q-174 0 -289 121q-112 118 -112 297zM217 418q2 -142 85.5 -231.5t219.5 -90.5 q102 -1 200.5 54.5t168 152t88.5 207.5q8 50 8 76q-2 140 -86 229t-219 90h-4q-155 0 -290.5 -122t-164.5 -291q-6 -38 -6 -74zM827 1434q2 15 33 31t60 16q33 0 51 -37l100 -191q7 -10 4 -22q0 -7 -8.5 -13t-19.5 -6q-39 0 -62 27l-141 158q-19 23 -17 37z" />
<glyph unicode="&#xf3;" horiz-adv-x="1310" d="M119 418q0 48 8 92q24 134 105.5 247t200.5 179.5t249 67.5q174 0 291 -123q110 -113 110 -295q0 -50 -8 -94l-47 10l47 -10q-24 -134 -105.5 -247t-200 -179t-247.5 -66h-2q-174 0 -289 121q-112 118 -112 297zM217 418q2 -142 85.5 -231.5t219.5 -90.5 q102 -1 200.5 54.5t168 152t88.5 207.5q8 50 8 76q-2 140 -86 229t-219 90h-4q-155 0 -290.5 -122t-164.5 -291q-6 -38 -6 -74zM541 1231q-3 12 4 22l100 191q18 37 51 37q29 0 59.5 -16t32.5 -31t-16 -37l-141 -158q-23 -27 -62 -27q-11 0 -19.5 6t-8.5 13z" />
<glyph unicode="&#xf4;" horiz-adv-x="1310" d="M119 418q0 48 8 92q24 134 105.5 247t200.5 179.5t249 67.5q174 0 291 -123q110 -113 110 -295q0 -50 -8 -94l-47 10l47 -10q-24 -134 -105.5 -247t-200 -179t-247.5 -66h-2q-174 0 -289 121q-112 118 -112 297zM217 418q2 -142 85.5 -231.5t219.5 -90.5 q102 -1 200.5 54.5t168 152t88.5 207.5q8 50 8 76q-2 140 -86 229t-219 90h-4q-155 0 -290.5 -122t-164.5 -291q-6 -38 -6 -74zM600 1233q3 13 14 24l172 181q32 37 62 37h16q28 0 54 -37l122 -181q9 -15 7 -24q0 -8 -9 -14.5t-22 -6.5q-41 0 -64 27l-114 119l-144 -119 q-34 -27 -69 -27q-11 0 -18 6.5t-7 14.5z" />
<glyph unicode="&#xf5;" horiz-adv-x="1310" d="M119 418q0 48 8 92q24 134 105.5 247t200.5 179.5t249 67.5q174 0 291 -123q110 -113 110 -295q0 -50 -8 -94l-47 10l47 -10q-24 -134 -105.5 -247t-200 -179t-247.5 -66h-2q-174 0 -289 121q-112 118 -112 297zM217 418q2 -142 85.5 -231.5t219.5 -90.5 q102 -1 200.5 54.5t168 152t88.5 207.5q8 50 8 76q-2 140 -86 229t-219 90h-4q-155 0 -290.5 -122t-164.5 -291q-6 -38 -6 -74zM453 1231l8 24q38 86 81 120t101 34q40 0 128 -42t122 -42q33 0 55.5 18t46.5 60q19 29 41 29q15 0 24.5 -10t8.5 -25q0 -13 -8 -25 q-38 -86 -81 -119.5t-101 -33.5q-40 0 -128 42t-122 42q-33 0 -56 -18t-47 -60q-19 -29 -41 -29q-15 0 -24 10t-8 25z" />
<glyph unicode="&#xf6;" horiz-adv-x="1280" d="M143 418q0 42 9 92q24 134 105.5 247t200.5 179.5t249 67.5q173 0 290 -123q111 -114 111 -295q0 -50 -8 -94l-47 10l47 -10q-24 -134 -105.5 -247t-200 -179t-247.5 -66h-2q-174 0 -289 121q-113 119 -113 297zM242 418q2 -142 85.5 -231.5t219.5 -90.5 q102 -1 200.5 54.5t168 152t88.5 207.5q8 50 8 76q-2 140 -86 229t-219 90h-5q-155 0 -290 -122t-164 -291q-6 -38 -6 -74zM576 1305q6 37 35.5 62.5t66.5 25.5t58.5 -25.5t15.5 -62.5q-8 -37 -38 -62.5t-67 -25.5t-57.5 25.5t-13.5 62.5zM914 1305q6 37 35.5 62.5 t66.5 25.5t58.5 -25.5t15.5 -62.5q-8 -37 -38 -62.5t-67 -25.5t-57.5 25.5t-13.5 62.5z" />
<glyph unicode="&#xf7;" horiz-adv-x="1269" d="M139 549q-6 -20 3.5 -34.5t29.5 -14.5h909q20 0 38.5 14t27.5 35q4 20 -7.5 34.5t-31.5 14.5h-909q-20 0 -38 -14.5t-22 -34.5zM436 137l10 35q9 33 41 57.5t66 24.5q33 0 49.5 -24t7.5 -58l-10 -35q-11 -34 -41 -58t-63 -24q-34 0 -52 24.5t-8 57.5zM670 926l10 35 q11 34 40.5 57.5t63.5 23.5t52 -24t8 -57l-10 -35q-9 -33 -41 -57.5t-66 -24.5q-33 0 -49.5 24t-7.5 58z" />
<glyph unicode="&#xf8;" horiz-adv-x="1310" d="M123 47q4 19 16 31l123 106q-105 155 -67 361v4q19 109 77.5 209t142 174.5t192 119t222.5 44.5q198 0 320 -125l117 106q20 17 41 17q17 0 26.5 -11t7.5 -28q-4 -20 -18 -31l-125 -111q108 -152 70 -360v-4q-19 -109 -77.5 -209t-142 -174.5t-192.5 -119t-223 -44.5 q-196 0 -322 123l-114 -100q-20 -17 -41 -17q-17 0 -26.5 11t-6.5 28zM303 549q-30 -165 45 -289l723 633q-105 108 -262 108q-184 0 -328.5 -130.5t-177.5 -317.5v-4zM391 203q99 -107 262 -107q183 0 327.5 131t178.5 318v4q27 166 -47 289z" />
<glyph unicode="&#xf9;" horiz-adv-x="1255" d="M170 346q0 34 6 72l96 540q5 20 21.5 32t36.5 9q19 -3 30 -20t7 -37l-95 -543q-4 -36 -4 -53q2 -108 69.5 -176.5t180.5 -69.5q128 -2 239.5 93t133.5 225l96 540q3 20 19 32t36 9t31.5 -20t7.5 -37l-94 -543q-31 -167 -166 -281t-303 -116q-150 0 -250 100 q-98 98 -98 244zM621 1434q2 15 32.5 31t59.5 16q33 0 51 -37l101 -191q7 -10 4 -22q0 -7 -9 -13t-20 -6q-38 0 -61 27l-142 158q-18 22 -16 37z" />
<glyph unicode="&#xfa;" horiz-adv-x="1255" d="M170 346q0 34 6 72l96 540q5 20 21.5 32t36.5 9q19 -3 30 -20t7 -37l-95 -543q-4 -36 -4 -53q2 -108 69.5 -176.5t180.5 -69.5q128 -2 239.5 93t133.5 225l96 540q3 20 19 32t36 9t31.5 -20t7.5 -37l-94 -543q-31 -167 -166 -281t-303 -116q-150 0 -250 100 q-98 98 -98 244zM629 1231q-3 12 4 22l100 191q18 37 51 37q29 0 60 -16t33 -31q2 -14 -17 -37l-141 -158q-23 -27 -62 -27q-11 0 -19.5 6t-8.5 13z" />
<glyph unicode="&#xfb;" horiz-adv-x="1255" d="M170 346q0 34 6 72l96 540q5 20 21.5 32t36.5 9q19 -3 30 -20t7 -37l-95 -543q-4 -36 -4 -53q2 -108 69.5 -176.5t180.5 -69.5q128 -2 239.5 93t133.5 225l96 540q3 20 19 32t36 9t31.5 -20t7.5 -37l-94 -543q-31 -167 -166 -281t-303 -116q-150 0 -250 100 q-98 98 -98 244zM535 1233q3 13 14 24l172 181q32 37 62 37h16q17 0 28 -8.5t25 -28.5l123 -181q8 -14 6 -24q0 -8 -8.5 -14.5t-21.5 -6.5q-41 0 -64 27l-115 119l-143 -119q-34 -27 -70 -27q-11 0 -17.5 6.5t-6.5 14.5z" />
<glyph unicode="&#xfc;" horiz-adv-x="1255" d="M170 346q0 34 6 72l96 540q5 20 21.5 32t36.5 9q19 -3 30 -20t7 -37l-95 -543q-4 -36 -4 -53q2 -108 69.5 -176.5t180.5 -69.5q128 -2 239.5 93t133.5 225l96 540q3 20 19 32t36 9t31.5 -20t7.5 -37l-94 -543q-31 -167 -166 -281t-303 -116q-150 0 -250 100 q-98 98 -98 244zM494 1305q6 37 35.5 62.5t66.5 25.5t58.5 -25.5t15.5 -62.5q-8 -37 -38 -62.5t-67 -25.5t-57.5 25.5t-13.5 62.5zM831 1305q6 37 36 62.5t67 25.5t58.5 -25.5t15.5 -62.5q-8 -37 -38 -62.5t-67 -25.5t-58 25.5t-14 62.5z" />
<glyph unicode="&#xfd;" horiz-adv-x="1204" d="M115.5 -318q-5.5 20 3.5 39q9 17 27.5 22.5t37.5 -3.5q69 -37 156 -37q102 -1 200.5 51.5t166 141t84.5 190.5l8 47q-141 -131 -322 -131q-72 0 -138.5 25t-113.5 71q-96 96 -96 244q0 36 6 74l94 545q3 19 20.5 30t37.5 8q21 -5 32 -21t7 -36l-97 -545q-4 -18 -4 -55 q2 -107 70.5 -175.5t181.5 -68.5q128 -2 238.5 93t132.5 225l96 545q3 19 19.5 30t35.5 8t29 -16q12 -12 12 -27q4 -7 0 -14l-153 -872q-35 -195 -193.5 -329t-353.5 -136q-109 0 -201 47q-18 10 -23.5 30zM639 1231q-3 12 4 22l100 191q18 37 51 37q29 0 60 -16t33 -31 q2 -14 -17 -37l-141 -158q-23 -27 -62 -27q-11 0 -19.5 6t-8.5 13z" />
<glyph unicode="&#xff;" horiz-adv-x="1204" d="M115.5 -318q-5.5 20 3.5 39q9 17 27.5 22.5t37.5 -3.5q69 -37 156 -37q102 -1 200.5 51.5t166 141t84.5 190.5l8 47q-141 -131 -322 -131q-72 0 -138.5 25t-113.5 71q-96 96 -96 244q0 36 6 74l94 545q3 19 20.5 30t37.5 8q21 -5 32 -21t7 -36l-97 -545q-4 -18 -4 -55 q2 -107 70.5 -175.5t181.5 -68.5q128 -2 238.5 93t132.5 225l96 545q3 19 19.5 30t35.5 8t29 -16q12 -12 12 -27q4 -7 0 -14l-153 -872q-35 -195 -193.5 -329t-353.5 -136q-109 0 -201 47q-18 10 -23.5 30zM467 1305q6 37 35.5 62.5t66.5 25.5t58.5 -25.5t15.5 -62.5 q-8 -37 -38 -62.5t-67 -25.5t-57.5 25.5t-13.5 62.5zM805 1305q6 37 35.5 62.5t66.5 25.5t58.5 -25.5t15.5 -62.5q-8 -37 -38 -62.5t-67 -25.5t-57.5 25.5t-13.5 62.5z" />
<glyph unicode="&#x152;" horiz-adv-x="2359" d="M76 727q37 198 158 365t297 264.5t366 97.5q194 0 337 -106t200 -281l57 317q3 20 20 35t37 15h738q21 0 32.5 -14.5t8.5 -35.5q-5 -22 -21.5 -36.5t-38.5 -14.5h-686l-100 -567h600q20 0 32 -14.5t9 -36.5q-3 -20 -20.5 -34.5t-37.5 -14.5h-600l-100 -566h686 q21 0 32.5 -14.5t8.5 -36.5q-5 -21 -21.5 -35t-37.5 -14h-742q-18 2 -28.5 15.5t-6.5 33.5l60 338q-119 -176 -300 -281.5t-376 -105.5q-142 0 -260.5 57.5t-193 155t-105 232t-4.5 282.5zM176 727q-30 -172 24 -316.5t175 -227.5t282 -83q156 0 304.5 83t254 228t136.5 316 q29 173 -25.5 317.5t-173 226t-274.5 81.5q-121 0 -239 -48.5t-212.5 -131t-162 -199t-89.5 -246.5z" />
<glyph unicode="&#x153;" horiz-adv-x="2160" d="M119 422q0 48 8 92q24 134 105.5 247t200.5 179.5t249 67.5q174 0 291 -123q71 -74 96 -185q78 136 212.5 220.5t285.5 85.5q179 0 297 -121q116 -119 116 -299q0 -18 -4 -54q0 -2 -1 -6t-1 -6q-5 -16 -17.5 -26.5t-29.5 -10.5h-831q-4 -20 -4 -61q0 -140 87.5 -230.5 t227.5 -91.5q100 0 197 50.5t165 136.5q14 15 34.5 17t35.5 -11q15 -12 17 -32.5t-11 -35.5q-81 -102 -197 -162.5t-241 -60.5h-2q-179 0 -297 121q-75 75 -102 184q-76 -136 -207 -219.5t-277 -83.5h-2q-174 0 -289 121q-112 118 -112 297zM217 422q2 -142 85.5 -231.5 t219.5 -90.5q102 -1 200.5 54.5t168 152t88.5 207.5q8 50 8 76q-2 140 -86 229t-219 90h-4q-155 0 -290.5 -122t-164.5 -291q-6 -37 -6 -74zM1122 582h760v4q-2 141 -88.5 230.5t-226.5 90.5q-139 1 -265.5 -92t-179.5 -233z" />
<glyph unicode="&#x178;" horiz-adv-x="1466" d="M120.5 1394.5q5.5 19.5 22.5 28.5q19 11 39.5 6t30.5 -24l338 -612l563 620q14 15 35.5 16t36.5 -12q15 -14 16 -34t-12 -35l-602 -664l-113 -645q-3 -18 -17 -29.5t-32 -11.5h-10q-20 3 -32 20t-9 37l114 643l-364 658q-10 19 -4.5 38.5zM504 1649q4 30 29 51.5t55 21.5 q31 0 48.5 -21t12.5 -52q-6 -30 -31 -51t-55 -21q-31 0 -48 21.5t-11 50.5zM846 1649q4 30 29 51.5t55 21.5q31 0 48.5 -21t12.5 -52q-6 -30 -31 -51t-55 -21q-31 0 -48 21.5t-11 50.5z" />
<glyph unicode="&#x2c6;" d="M289 1233q3 13 14 24l172 181q32 37 62 37h16q17 0 28 -8.5t25 -28.5l123 -181q8 -14 6 -24q0 -8 -8.5 -14.5t-21.5 -6.5q-41 0 -64 27l-115 119l-143 -119q-34 -27 -70 -27q-11 0 -17.5 6.5t-6.5 14.5z" />
<glyph unicode="&#x2dc;" d="M217 1231l8 24q38 86 81.5 120t101.5 34q40 0 127.5 -42t121.5 -42q33 0 56 18t47 60q19 29 41 29q15 0 24.5 -10t8.5 -25q0 -11 -9 -25q-38 -86 -81 -119.5t-101 -33.5q-40 0 -128 42t-122 42q-33 0 -55.5 -18t-46.5 -60q-19 -29 -41 -29q-15 0 -24.5 10t-8.5 25z" />
<glyph unicode="&#x2000;" horiz-adv-x="945" />
<glyph unicode="&#x2001;" horiz-adv-x="1891" />
<glyph unicode="&#x2002;" horiz-adv-x="945" />
<glyph unicode="&#x2003;" horiz-adv-x="1891" />
<glyph unicode="&#x2004;" horiz-adv-x="630" />
<glyph unicode="&#x2005;" horiz-adv-x="472" />
<glyph unicode="&#x2006;" horiz-adv-x="315" />
<glyph unicode="&#x2007;" horiz-adv-x="315" />
<glyph unicode="&#x2008;" horiz-adv-x="236" />
<glyph unicode="&#x2009;" horiz-adv-x="378" />
<glyph unicode="&#x200a;" horiz-adv-x="105" />
<glyph unicode="&#x2010;" horiz-adv-x="835" d="M135 713q0 17 11 27t28 10h436q16 0 27.5 -10t11.5 -27q0 -18 -11.5 -29.5t-27.5 -11.5h-436q-17 0 -28 11t-11 30z" />
<glyph unicode="&#x2011;" horiz-adv-x="835" d="M135 713q0 17 11 27t28 10h436q16 0 27.5 -10t11.5 -27q0 -18 -11.5 -29.5t-27.5 -11.5h-436q-17 0 -28 11t-11 30z" />
<glyph unicode="&#x2012;" horiz-adv-x="835" d="M135 713q0 17 11 27t28 10h436q16 0 27.5 -10t11.5 -27q0 -18 -11.5 -29.5t-27.5 -11.5h-436q-17 0 -28 11t-11 30z" />
<glyph unicode="&#x2013;" horiz-adv-x="1081" d="M141 608q3 22 21.5 38t40.5 16h704q22 0 35 -16t10 -38q-5 -22 -23 -37.5t-40 -15.5h-705q-22 0 -34.5 15.5t-8.5 37.5z" />
<glyph unicode="&#x2014;" horiz-adv-x="1839" d="M143 608q4 22 24 38t42 16h1462q22 0 34 -16t7 -38q-6 -22 -25.5 -37.5t-41.5 -15.5h-1463q-22 0 -33.5 15.5t-5.5 37.5z" />
<glyph unicode="&#x2018;" horiz-adv-x="471" d="M168 1372q-7 28 8 48t43 20t52 -20t32 -48l8 -43q11 -58 -41 -72q7 -54 37.5 -90t93.5 -67q20 -10 23 -27q3 -14 -5 -22.5t-20 -8.5q-14 0 -51.5 19.5t-71.5 46.5q-64 55 -98 213z" />
<glyph unicode="&#x2019;" horiz-adv-x="471" d="M125 1073q4 18 22 27q63 31 94 67t38 90q-52 14 -41 72l8 43q8 28 32 48t52 20t43 -20t8 -48l-10 -51q-34 -157 -99 -213q-34 -27 -71 -46.5t-51 -19.5q-12 0 -20 8.5t-5 22.5z" />
<glyph unicode="&#x201a;" horiz-adv-x="471" />
<glyph unicode="&#x201c;" horiz-adv-x="839" d="M168 1110l10 51q34 158 98 213q34 27 71.5 46.5t51.5 19.5q12 0 20 -8.5t5 -22.5q-3 -17 -23 -27q-63 -31 -93.5 -67t-37.5 -90q52 -14 41 -72l-8 -43q-8 -28 -32 -48t-52 -20t-43 20t-8 48zM537 1110l10 51q34 158 98 213q34 27 71.5 46.5t51.5 19.5q12 0 20 -8.5 t5 -22.5q-3 -17 -23 -27q-63 -31 -93.5 -67t-37.5 -90q52 -14 41 -72l-8 -43q-8 -28 -32 -48t-52 -20t-43 20t-8 48z" />
<glyph unicode="&#x201d;" horiz-adv-x="839" d="M125 1073q4 18 22 27q63 31 94 67t38 90q-52 14 -41 72l8 43q8 28 32 48t52 20t43 -20t8 -48l-10 -51q-34 -157 -99 -213q-34 -27 -71 -46.5t-51 -19.5q-12 0 -20 8.5t-5 22.5zM494 1073q4 18 22 27q63 31 93.5 67t37.5 90q-52 14 -41 72l8 43q8 28 32 48t52 20t43.5 -20 t8.5 -48l-11 -51q-34 -158 -98 -213q-34 -27 -71.5 -46.5t-51.5 -19.5q-12 0 -19.5 8.5t-4.5 22.5z" />
<glyph unicode="&#x201e;" horiz-adv-x="839" d="M115 -168q4 18 22 27q63 31 93.5 67t37.5 90q-52 14 -41 72l9 43q8 28 32 48t51 20q28 0 43.5 -20t8.5 -48l-11 -51q-34 -158 -98 -213q-34 -27 -71.5 -46.5t-51.5 -19.5q-12 0 -19.5 8.5t-4.5 22.5zM483 -168q3 17 23 27q63 31 93.5 67t37.5 90q-52 14 -41 72l8 43 q8 28 32 48t52 20t43 -20t8 -48l-10 -51q-34 -158 -98 -213q-34 -27 -71.5 -46.5t-51.5 -19.5q-12 0 -20 8.5t-5 22.5z" />
<glyph unicode="&#x2022;" horiz-adv-x="962" d="M252 719l2 4q19 103 109.5 177.5t191.5 74.5q100 0 163 -74.5t44 -177.5l-2 -4q-19 -104 -107.5 -178t-193.5 -74q-104 0 -165 74t-42 178z" />
<glyph unicode="&#x2026;" horiz-adv-x="1392" d="M182 119q8 50 46 83.5t89 33.5q52 0 78.5 -33.5t18.5 -83.5q-11 -52 -50.5 -85.5t-91.5 -33.5q-51 0 -76 34t-14 85zM676 119q8 50 46 83.5t89 33.5t77.5 -33t18.5 -84q-11 -52 -50 -85.5t-91 -33.5q-51 0 -76 34t-14 85zM1169 119q8 50 46.5 83.5t89.5 33.5t77.5 -33 t18.5 -84q-11 -52 -50 -85.5t-91 -33.5q-51 0 -76.5 34t-14.5 85z" />
<glyph unicode="&#x202f;" horiz-adv-x="378" />
<glyph unicode="&#x2039;" horiz-adv-x="636" d="M115 526q3 20 28 45l344 367q23 23 43 23q19 0 30.5 -12.5t8.5 -30.5q-3 -20 -18 -35l-322 -355l195 -358q9 -15 6 -35q-3 -19 -17.5 -31t-33.5 -12q-25 0 -35 23l-217 366q-15 26 -12 45z" />
<glyph unicode="&#x203a;" horiz-adv-x="636" d="M141 135q3 19 19 35l321 354l-194 359q-9 15 -6 35q3 19 17.5 31t33.5 12q25 0 35 -23l217 -367q15 -26 12 -45t-29 -45l-344 -366q-23 -23 -43 -23q-19 0 -30.5 12.5t-8.5 30.5z" />
<glyph unicode="&#x205f;" horiz-adv-x="472" />
<glyph unicode="&#x2122;" horiz-adv-x="1413" d="M45 1415q0 7 6.5 14t14.5 7h415q9 0 15 -6.5t6 -14.5q0 -9 -6 -15.5t-15 -6.5h-190l-96 -555q-4 -19 -23 -19h-2q-9 1 -14.5 9t-3.5 16l96 549h-182q-8 0 -14.5 6.5t-6.5 15.5zM555 842l102 573q1 7 8 13t15 6q9 0 20 -11l164 -303l275 305q6 9 16 9h4q9 -1 15 -9t4 -16 l-103 -573q-3 -19 -20 -19h-4q-8 2 -13 10t-4 15l88 501l-245 -274q-6 -6 -17 -6h-2q-12 0 -18 12l-150 275l-90 -514q-3 -19 -22 -19h-5q-18 3 -18 25z" />
<glyph unicode="&#x25fc;" horiz-adv-x="993" d="M0 0v993h993v-993h-993z" />
</font>
</defs>
</svg>
