<?xml version="1.0" standalone="no"?>
<!DOCTYPE svg PUBLIC "-//W3C//DTD SVG 1.1//EN" "http://www.w3.org/Graphics/SVG/1.1/DTD/svg11.dtd" >
<svg xmlns="http://www.w3.org/2000/svg">
<metadata></metadata>
<defs>
<font id="quicksandbold_italic" horiz-adv-x="1024" >
<font-face units-per-em="2048" ascent="1638" descent="-410" />
<missing-glyph horiz-adv-x="614" />
<glyph horiz-adv-x="0" />
<glyph unicode="&#xd;" horiz-adv-x="2048" />
<glyph unicode=" "  horiz-adv-x="614" />
<glyph unicode="&#x09;" horiz-adv-x="614" />
<glyph unicode="&#xa0;" horiz-adv-x="614" />
<glyph unicode="!" horiz-adv-x="516" d="M201 115l8 45q7 46 47 79t86 33q47 0 74.5 -33t19.5 -79l-8 -45q-8 -46 -47 -79.5t-86 -33.5t-74.5 33.5t-19.5 79.5zM281 563l133 758q7 47 47 81t86 34q47 0 75 -34t19 -81l-133 -758q-9 -47 -48.5 -80.5t-86.5 -33.5q-46 0 -73.5 33.5t-18.5 80.5z" />
<glyph unicode="&#x22;" horiz-adv-x="839" d="M141 887l37 438q3 50 35 82.5t82 32.5h80q30 0 48.5 -18t18.5 -50q0 -13 -8 -45l-149 -455q-23 -63 -74 -63q-31 0 -51 21.5t-19 56.5zM592 887l35 438q3 51 34.5 83t81.5 32h82q29 0 47.5 -18.5t18.5 -49.5q0 -13 -8 -45l-150 -455q-23 -63 -74 -63q-30 0 -50 22t-17 56 z" />
<glyph unicode="#" horiz-adv-x="1433" d="M92 436q0 43 31.5 75t75.5 32h131l61 356h-119q-43 0 -74.5 32t-31.5 75t31.5 74.5t74.5 31.5h156l41 244q6 39 36 63.5t70 24.5q50 0 81.5 -38.5t25.5 -86.5l-37 -207h322l41 244q6 39 36 63.5t72 24.5q49 0 81 -38.5t24 -86.5l-35 -207h94q43 0 74.5 -31t31.5 -75 q0 -43 -31.5 -75t-74.5 -32h-131l-62 -356h117q44 0 75.5 -31.5t31.5 -75.5q0 -43 -31.5 -74.5t-75.5 -31.5h-153l-43 -252q-6 -38 -36.5 -63t-70.5 -25q-50 0 -82 38.5t-24 86.5l39 215h-322l-43 -252q-6 -36 -35.5 -62t-73.5 -26q-50 0 -80.5 36.5t-23.5 88.5l37 215h-94 q-44 0 -75.5 31t-31.5 75zM549 543h319l62 356h-320z" />
<glyph unicode="$" horiz-adv-x="1294" d="M131 262q9 47 47.5 80t85.5 33q38 0 64 -23q132 -110 278 -137l72 403q-220 60 -307.5 156.5t-57.5 265.5q29 163 166.5 270t333.5 122l8 43q6 37 37 62.5t68 25.5t58 -25.5t15 -62.5l-8 -45q164 -19 297 -113q56 -32 45 -98q-9 -47 -48.5 -80t-86.5 -33q-30 0 -57 18 q-105 68 -197 90l-70 -393q225 -59 312.5 -158.5t58.5 -263.5q-29 -166 -167 -273t-339 -126l-22 -123q-6 -37 -36 -62.5t-67 -25.5t-59 25.5t-16 62.5l22 127q-222 24 -391 160q-48 35 -39 98zM559 1055q-13 -67 21.5 -110.5t140.5 -80.5l63 363q-97 -9 -155.5 -55.5 t-69.5 -116.5zM768 207q99 10 159 57t74 121q12 70 -24 114.5t-143 80.5z" />
<glyph unicode="%" horiz-adv-x="1687" d="M147 1081l3 4q27 154 140.5 260.5t262.5 106.5t224 -105t48 -257v-5q-29 -154 -142 -260t-263 -106q-148 0 -224 105.5t-49 256.5zM186 72q5 25 29 53l1165 1284q27 37 78 37q34 0 54 -23t14 -57q-5 -25 -29 -53l-1165 -1284q-34 -37 -80 -37q-34 0 -53 23t-13 57z M332 1085q-17 -88 17.5 -148t103.5 -60q70 0 122 59t66 145l2 4q14 88 -20.5 148.5t-102.5 60.5q-70 0 -122 -59t-66 -145v-5zM885 348v4q28 154 142 260.5t263 106.5q148 0 224 -106t49 -257l-2 -4q-27 -153 -141 -259.5t-263 -106.5q-148 0 -223.5 105.5t-48.5 256.5z M1067 352q-15 -89 19 -149t102 -60q70 0 123 59.5t67 145.5v4q15 88 -19 148.5t-102 60.5q-70 0 -122 -59.5t-66 -145.5z" />
<glyph unicode="&#x26;" horiz-adv-x="1425" d="M147 492q18 106 77 199.5t147 162.5q-41 94 -21 199q28 158 159 269.5t288 111.5q158 0 249.5 -111.5t63.5 -269.5q-7 -47 -46.5 -80t-86.5 -33q-46 0 -73.5 33t-18.5 80q10 64 -27 108.5t-100 44.5q-65 0 -118 -44.5t-65 -108.5q-13 -82 43 -125q32 -26 33.5 -70 t-26.5 -82h-2q-2 -2 -5 -8q-14 -14 -26 -23l-8 -4q-1 -1 -3 -2t-3 -2q-10 -5 -11 -6q-74 -33 -126.5 -97t-65.5 -142q-20 -109 44 -187t173 -78q110 0 201.5 78t111.5 187q0 2 1 6t1 6q-119 0 -164 -39q-17 -15 -24 -45q-2 -10 -2 -21q6 -44 -24 -85.5t-77 -55.5 q-10 -4 -32 -4q-37 0 -64 22t-31 58q-8 24 5 86q18 122 120 207q125 104 338 104q10 0 33 -1t35 -1h4q19 0 25 2q6 3 6 4q4 0 4 13q4 17 2 32q-2 46 29.5 85.5t78.5 49.5q47 11 83.5 -14.5t37.5 -71.5q3 -36 -4 -81q-9 -57 -43.5 -109.5t-81.5 -83.5q-12 -9 -22 -14 q-1 -8 -3 -24.5t-3 -24.5q-37 -204 -206.5 -348t-373.5 -144q-134 0 -235.5 66t-147.5 179t-23 247z" />
<glyph unicode="'" horiz-adv-x="471" d="M141 887l37 438q3 50 35 82.5t82 32.5h80q30 0 49.5 -18.5t19.5 -49.5q0 -13 -8 -45l-149 -455q-23 -63 -76 -63q-31 0 -51 21.5t-19 56.5z" />
<glyph unicode="(" horiz-adv-x="880" d="M188 82q-60 214 0 543q44 248 125 422q100 211 250 315q121 82 260 82q53 0 83.5 -38t21.5 -91q-9 -54 -53.5 -92.5t-98.5 -38.5q-50 0 -90 -27q-44 -27 -90 -100q-102 -155 -147 -432q-40 -201 -21 -351q15 -137 70 -182q29 -26 82 -29q54 0 84 -37.5t20 -91.5 q-9 -54 -53.5 -91.5t-98.5 -37.5h-4q-136 0 -225 80q-77 71 -115 197z" />
<glyph unicode=")" horiz-adv-x="880" d="M135 -66q9 54 53.5 93t98.5 39q51 0 90 26q43 27 90 101q102 155 147 432q40 200 21 350q-15 137 -70 182q-29 26 -82 29q-54 0 -84 37.5t-20 91.5q9 54 53 91.5t98 37.5h5q136 0 225 -80q76 -70 114 -197q60 -214 0 -542q-45 -251 -124 -422q-100 -213 -250 -316 q-121 -82 -260 -82q-53 0 -83.5 38t-21.5 91z" />
<glyph unicode="*" horiz-adv-x="880" d="M162 596q9 44 55 59l143 58l-122 55q-41 18 -35 63q5 25 28 43.5t50 18.5q20 0 41 -21l98 -86l6 136q2 32 22.5 53.5t51.5 21.5q29 0 42 -21t3 -52l-41 -138l129 86q27 21 51 21q25 0 41 -19.5t10 -44.5q-5 -41 -55 -61l-145 -55l124 -58q41 -16 35 -61q-4 -26 -27.5 -45 t-48.5 -19q-22 0 -43 21l-98 86l-6 -135q-2 -31 -23 -52.5t-51 -21.5t-42 20.5t-3 53.5l41 135l-129 -86q-27 -21 -49 -21q-26 0 -42 20t-11 46z" />
<glyph unicode="+" horiz-adv-x="1269" d="M143 713q9 44 48 76t83 32h177l34 176q9 43 48 76t83 33q45 0 71.5 -33t17.5 -76l-35 -176h176q43 0 69 -32t17 -76q-9 -45 -48.5 -78t-82.5 -33h-176l-37 -176q-9 -43 -48.5 -76t-84.5 -33q-44 0 -69.5 33t-16.5 76l37 176h-177q-44 0 -69.5 32.5t-16.5 78.5z" />
<glyph unicode="," horiz-adv-x="471" d="M111 100q0 40 28 70.5t66 30.5q37 0 64.5 -22.5t35.5 -57.5q0 -2 4 -2q0 -1 0.5 -5.5t1 -13.5t0.5 -20q0 -28 -6 -56t-21.5 -62t-48.5 -60.5t-81 -38.5h-7q-9 0 -18 7t-12 17q-3 12 3.5 22t20.5 15q64 13 92 80q-6 -2 -28 -2q-38 0 -66 29t-28 69z" />
<glyph unicode="-" horiz-adv-x="835" d="M135 705q0 31 21.5 52t52.5 21h381q31 0 51.5 -21t20.5 -52t-20.5 -52.5t-51.5 -21.5h-381q-31 0 -52.5 21.5t-21.5 52.5z" />
<glyph unicode="." horiz-adv-x="471" d="M168 102q0 41 31 71t71 30q41 0 71 -30t30 -71q0 -40 -30 -71t-71 -31q-40 0 -71 31t-31 71z" />
<glyph unicode="/" d="M11.5 69q-18.5 44 0.5 87l502 1194q19 43 62.5 60.5t87.5 -1.5q41 -17 58.5 -60.5t-1.5 -84.5l-502 -1196q-13 -32 -42 -50t-62 -18q-25 0 -41 8q-44 17 -62.5 61z" />
<glyph unicode="0" horiz-adv-x="1454" d="M166 715q51 286 223 489q88 104 196.5 166t223.5 62t202.5 -62.5t137.5 -165.5q102 -202 51 -489t-223 -490q-86 -103 -195.5 -165t-224.5 -62t-202.5 62t-137.5 165q-102 202 -51 490zM384 511q10 -92 44 -159q62 -127 168 -127q105 0 215 127q57 66 100.5 161.5 t63.5 201.5q18 110 8 203t-45 161q-63 128 -168 125q-104 3 -215 -125q-57 -68 -100.5 -163t-61.5 -201q-19 -112 -9 -204z" />
<glyph unicode="1" horiz-adv-x="686" d="M84 1110q-17 41 3 87t65 69l278 149q1 1 3 2t3 2q8 4 13 4q2 1 6 2t6 2q2 0 5 1.5t5 1.5q4 2 12 2h9h2q8 0 12 -2h10l10 -5q1 -1 4.5 -2t4.5 -2q8 -4 10 -4q1 -1 4 -3t4 -3l8 -8l6 -6q1 -1 2 -4t2 -4q1 -2 3.5 -5.5t3.5 -5.5l2 -2q0 -4 2 -6q0 -2 1 -5.5t1 -4.5 q0 -2 1 -6t1 -6v-11v-12q-1 -1 -1 -3t-1 -3l-213 -1208q-8 -46 -47 -79.5t-86 -33.5q-46 0 -74 33.5t-19 79.5l179 1009l-91 -49q-32 -16 -61 -16q-63 0 -88 55z" />
<glyph unicode="2" horiz-adv-x="1208" d="M109.5 115.5q10.5 47.5 50.5 79.5l702 546q101 79 121 197q19 101 -37 178q-65 86 -180 86q-103 0 -191 -67l-73 -58q-41 -32 -87.5 -29.5t-72.5 37.5q-25 34 -14 81t51 79l74 58q165 127 352 127q101 0 189.5 -42t146.5 -120q102 -137 69 -330q-18 -102 -76 -198 t-149 -167l-448 -350h434q47 0 74.5 -33.5t19.5 -80.5q-9 -46 -48 -79.5t-85 -33.5h-723h-4h-4q-52 0 -76 37q-26 35 -15.5 82.5z" />
<glyph unicode="3" horiz-adv-x="1249" d="M163.5 231.5q9.5 47.5 49.5 81.5t88 34t76 -34q65 -80 180 -80q111 0 211 80q96 84 115 197q19 116 -45 195q-64 78 -181 81q-50 -3 -79 37q-1 0 -3 2q-28 34 -19.5 81.5t46.5 82.5l246 213h-330q-50 0 -77.5 34t-18.5 83q8 47 48 81t89 34h604q47 0 75 -34t19 -81 q-2 -24 -22 -55q-16 -21 -27 -29l-305 -266q77 -39 127 -101q60 -72 82 -165.5t4 -192.5t-72.5 -192.5t-140.5 -167.5q-87 -73 -187.5 -111.5t-199.5 -38.5q-98 0 -185.5 38.5t-148.5 111.5q-28 34 -18.5 81.5z" />
<glyph unicode="4" horiz-adv-x="1359" d="M110.5 364.5q3.5 45.5 39.5 81.5l923 940q0 5 4 5l10 10q1 1 4.5 3t4.5 3l12 6q4 4 8 4l12 6q2 0 5.5 1t5.5 1q4 2 12 2q6 3 12 3h4h7q4 0 10 -3q8 0 10 -2q2 0 5.5 -1t4.5 -1q2 -1 5 -2t5 -2q1 -1 4.5 -3t4.5 -3t4 -3t4 -3q1 0 2 -1t2 -1l4 -4q1 -1 3 -4t3 -4t3 -4.5 t3 -4.5q0 -2 4 -10l5 -10q0 -6 2 -8v-13q2 -2 2 -8q0 -2 -1 -7t-1 -7v-4l-146 -828h21q46 0 73.5 -33t18.5 -79q-8 -47 -47 -81t-86 -34h-21l-26 -153q-8 -46 -47.5 -79.5t-86.5 -33.5t-74.5 33.5t-19.5 79.5l29 153h-641h-4q-39 0 -66 27q-32 30 -28.5 75.5zM481 489h408 l90 506z" />
<glyph unicode="5" horiz-adv-x="1239" d="M141.5 233.5q8.5 47.5 48.5 81.5t88 34t76 -34q64 -79 181 -82q116 3 210 82q95 83 117 197q19 117 -47 195q-67 79 -180 79q-117 0 -211 -79q-40 -34 -88 -34t-76 34q-8 8 -16 28v4q-1 2 -2 6.5t-2 6.5v12v4q-3 15 4 35l155 528q16 56 66 82q1 1 4 3t4 3l8 4 q26 13 56 13h604q48 0 75.5 -34t18.5 -83q-7 -47 -47.5 -81t-87.5 -34h-504l-61 -203q74 19 141 19q99 0 185.5 -38t146.5 -112q60 -72 82 -165.5t4 -192.5q-18 -100 -72.5 -194t-140.5 -166q-87 -73 -187.5 -111.5t-199.5 -38.5t-186 38.5t-146 111.5q-29 34 -20.5 81.5z " />
<glyph unicode="6" horiz-adv-x="1314" d="M150 453q8 76 16 118q43 231 145 420q131 233 326 350q154 91 326 97q47 1 75.5 -30.5t22.5 -78.5t-44 -81t-85 -36q-111 -6 -203 -59q-88 -54 -156 -143q-5 -7 -11 -16t-13.5 -20.5t-11.5 -17.5q108 41 204 41q135 0 238 -66.5t149.5 -181t22.5 -249.5 q-37 -206 -208 -351t-376 -145q-193 0 -311.5 128.5t-103.5 318.5zM383 500q-19 -111 46 -190t177 -79t205 79t113 190q20 112 -44.5 191t-177.5 79t-206 -79t-113 -191z" />
<glyph unicode="7" horiz-adv-x="1202" d="M149.5 67q-9.5 44 16.5 87l627 1048h-529q-47 0 -74.5 33.5t-19.5 81.5q9 46 48 79.5t85 33.5h698q13 0 25 -3q21 -3 37 -16l6 -6l8 -8q2 -4 6 -8q4 -8 4 -11q1 -1 2.5 -3t2.5 -3q1 -2 2 -6t2 -6v-10q2 -2 2 -11q0 -26 -8 -45q-2 -9 -11 -22l-721 -1206q-20 -32 -51 -51 t-65 -19q-15 0 -43 8q-40 19 -49.5 63z" />
<glyph unicode="8" horiz-adv-x="1290" d="M162 483q21 125 99 233t190 175q-52 87 -31 201q25 140 141.5 239t255.5 99q140 0 222 -99.5t57 -238.5q-21 -114 -105 -201q89 -67 129 -174.5t19 -233.5q-23 -132 -108.5 -244t-210 -177.5t-257.5 -65.5q-132 0 -233 65.5t-146.5 177.5t-21.5 244zM383 483 q-19 -109 45.5 -186.5t173.5 -77.5q110 0 201.5 77.5t111.5 186.5q19 110 -45 188.5t-174 78.5t-201.5 -78t-111.5 -189zM641 1092q-8 -46 20.5 -80t75.5 -35q47 1 86.5 35t48.5 80q8 48 -19.5 81t-76.5 33q-47 0 -86.5 -33.5t-48.5 -80.5z" />
<glyph unicode="9" horiz-adv-x="1314" d="M182 936q37 205 208.5 350.5t377.5 145.5q191 0 310.5 -128.5t105.5 -316.5v-4q-7 -67 -17 -119q-39 -229 -145 -420q-132 -235 -326 -350q-154 -90 -323 -96h-6q-45 0 -73 31.5t-22 76.5q8 48 46 83t85 36q106 3 203 60q85 49 154 143q21 24 37 53q-96 -41 -205 -41 q-135 0 -237.5 66.5t-149 180.5t-23.5 249zM410 936q-20 -112 45 -191t178 -79q112 0 204.5 78.5t112.5 191.5q20 110 -45.5 189t-177.5 79t-204.5 -78.5t-112.5 -189.5z" />
<glyph unicode=":" horiz-adv-x="491" d="M186 102q7 41 44 71t77 30q41 0 65.5 -30t16.5 -71q-6 -40 -42 -71t-77 -31q-40 0 -65 31t-19 71zM338 969q7 41 44 70.5t77 29.5q41 0 65 -29.5t17 -70.5q-8 -40 -43 -71.5t-76 -31.5q-40 0 -65.5 31.5t-18.5 71.5z" />
<glyph unicode=";" horiz-adv-x="491" d="M123 -109q-1 12 8 22t23 15q68 14 108 80q-8 -2 -31 -2q-38 0 -59.5 29t-13.5 69t41 70.5t71 30.5q37 0 60.5 -22.5t25.5 -57.5q-2 -2 2 -2q0 -14 -4 -39q-5 -28 -16.5 -56t-33.5 -62t-61 -60.5t-89 -38.5h-7q-9 0 -16.5 7t-7.5 17zM324 965q9 41 45.5 70.5t76.5 29.5 q41 0 65 -29.5t15 -70.5q-8 -41 -42.5 -72t-75.5 -31q-40 0 -65.5 31.5t-18.5 71.5z" />
<glyph unicode="&#x3c;" horiz-adv-x="1269" d="M123 694q0 2 1 5.5t1 5.5v14q0 1 1 4t1 4q1 3 3 8t3 8q0 5 2 7q4 12 8 18l2 2q12 22 35 41l684 586q44 38 99 38t86 -38q32 -38 22.5 -92.5t-53.5 -92.5l-578 -493l404 -494q31 -38 21 -93t-54 -93q-46 -37 -100 -37q-53 0 -86 39l-478 586q-7 7 -10 16q-2 2 -2 4 q-1 1 -6 17q-2 2 -2 6q-2 4 -2 14q0 1 -1 4.5t-1 5.5z" />
<glyph unicode="=" horiz-adv-x="1269" d="M162 604q0 31 21.5 52.5t52.5 21.5h380q31 0 51.5 -21.5t20.5 -52.5t-20.5 -52.5t-51.5 -21.5h-380q-31 0 -52.5 21.5t-21.5 52.5zM162 834q0 29 21.5 50t52.5 21h380q30 0 51 -20.5t21 -50.5q0 -31 -20.5 -51.5t-51.5 -20.5h-380q-31 0 -52.5 20.5t-21.5 51.5z" />
<glyph unicode="&#x3e;" horiz-adv-x="1269" d="M202.5 132q9.5 55 55.5 93l578 494l-404 493q-32 39 -22 92.5t55 92.5q44 38 98.5 38t85.5 -38l479 -586q10 -15 11 -18l2 -2q5 -15 6 -17q0 -1 1 -3t1 -3q0 -10 2 -14v-11v-12q0 -8 -2 -12q0 -6 -2 -8q0 -9 -4 -17q0 -1 -1 -3t-1 -3q-2 -3 -5.5 -9t-5.5 -9l-2 -4 q-12 -17 -14 -19l-2 -4l-16 -16l-686 -586q-42 -39 -99 -39q-56 0 -86 37q-32 38 -22.5 93z" />
<glyph unicode="?" horiz-adv-x="1093" d="M88.5 1126.5q-3.5 41.5 24.5 79.5q78 103 193.5 164.5t238.5 61.5q92 0 169.5 -36t127.5 -96.5t71.5 -144.5t4.5 -176q-27 -159 -147 -281.5t-277 -158.5l-27 -142q-7 -44 -43.5 -74t-79.5 -30t-68 30t-18 74l39 226q0 1 1 2t1 2v4q7 43 43.5 73.5t79.5 30.5 q101 0 184.5 71.5t102.5 172.5q17 100 -42 171t-159 71q-67 0 -128.5 -32.5t-103.5 -88.5q-30 -37 -72.5 -48.5t-76.5 11.5q-35 22 -38.5 63.5zM207 104l6 39q8 44 44.5 75.5t80.5 31.5q43 0 68 -31.5t18 -75.5l-6 -39q-7 -44 -44 -75t-81 -31q-43 0 -68 31t-18 75z" />
<glyph unicode="@" horiz-adv-x="2007" d="M178 721q26 146 106 278.5t193 228.5t256 153t289 57q145 0 268 -57t202 -153t112.5 -229t7.5 -278q-29 -172 -137 -328v-2l-2 -2l-9 -11q-9 -11 -24.5 -27t-32.5 -32q-87 -78 -176 -98q-24 -8 -55 -8q-46 0 -85 22.5t-57 55.5q-15 24 -22 61q-96 -47 -191 -47 q-81 0 -148.5 33.5t-111.5 91.5q-93 120 -63 291q30 168 166 291q138 125 305 125q81 0 148.5 -33.5t111.5 -91.5q93 -120 63 -291q0 -6 -4 -14v-9l-43 -243q4 1 17 10q25 25 30 35q71 99 92 221q23 133 -22.5 245.5t-146.5 178t-234 65.5t-257 -65.5t-209.5 -178 t-108.5 -245.5q-17 -99 5.5 -190t76.5 -156.5t138 -104.5t183 -39q65 0 123 15q48 11 84 -13t39 -69q4 -46 -27 -86t-78 -51q-97 -23 -182 -23q-145 0 -268 57t-202 153t-112.5 229t-7.5 278zM725 721q-15 -81 29 -135q39 -54 108 -54q70 0 127 54q65 58 76 135 q15 81 -29 135q-38 53 -108 53q-71 0 -127 -53q-64 -57 -76 -135z" />
<glyph unicode="A" horiz-adv-x="1323" d="M132 66q-4 14 -3 29q0 30 16 59l666 1206q18 34 51.5 54t69.5 20t62.5 -19.5t33.5 -54.5l240 -1206q2 -11 2 -22q0 -34 -20 -66q-27 -44 -74 -60q-21 -6 -41 -6q-34 0 -60.5 20.5t-32.5 53.5l-53 264h-500l-147 -264q-19 -34 -51.5 -54t-67.5 -20q-21 0 -39 6 q-40 16 -52 60zM614 563h330l-88 441z" />
<glyph unicode="B" horiz-adv-x="1216" d="M225 111l213 1208q8 46 47 79.5t86 33.5h2h2h285q162 0 256 -114q73 -88 73 -206q0 -35 -7 -72q-24 -130 -119 -231q85 -59 123 -157q25 -65 24 -138q0 -38 -6 -78q-32 -181 -183 -309.5t-333 -128.5h-364h-5h-2q-45 0 -73 34q-21 25 -21 57q0 11 2 22zM471 225h256 q88 0 161.5 62t88.5 149q3 20 3 39q0 63 -38 111q-50 62 -139 63h-256zM586 877h176q68 0 124 48t68 115q3 16 3 30q-1 48 -31 86q-40 48 -107 48h-174z" />
<glyph unicode="C" horiz-adv-x="1472" d="M219 717q27 146 108.5 279t197 229t260.5 152.5t294 56.5q259 0 428 -156q30 -27 30 -69q-1 -3 -1 -7q-2 -47 -37 -84t-83 -42q-7 -1 -13 -1q-39 0 -66 25q-122 106 -299 106q-103 0 -202.5 -38t-180.5 -105q-83 -69 -137.5 -157.5t-71.5 -188.5q-9 -46 -8 -90 q0 -144 94 -256q58 -68 144.5 -106t189.5 -38q182 0 336 107q33 24 70 24q8 0 17 -2q46 -6 69 -43q13 -23 13 -49q0 -17 -5 -34q-14 -46 -57 -74q-224 -156 -482 -156q-149 0 -274.5 56.5t-207.5 152t-117 228.5q-20 76 -20 157q0 60 11 123z" />
<glyph unicode="D" horiz-adv-x="1472" d="M225 115l211 1206q9 47 48.5 80t86.5 33h242q146 0 268.5 -56.5t201.5 -152.5t113 -229q19 -75 18 -154q0 -61 -11 -125q-26 -145 -106.5 -278t-193.5 -229t-256 -153t-288 -57h-240h-2q-45 0 -73 34q-21 26 -21 59q0 10 2 22zM471 227h129q133 0 257.5 65.5t210 178.5 t108.5 246q8 47 8 90q0 147 -91 257q-118 142 -321 144h-129z" />
<glyph unicode="E" horiz-adv-x="1214" d="M223 109l213 1208q8 46 47 79.5t86 33.5h2h2h664q47 0 75 -34q21 -26 21 -59q0 -10 -2 -20q-9 -47 -48 -81t-85 -34h-555l-68 -377h480q45 -1 73 -33q21 -24 21 -57q0 -11 -2 -22q-7 -47 -46.5 -80t-86.5 -33h-477l-68 -377h555q46 1 74 -33q21 -26 22 -61q0 -10 -2 -20 q-9 -46 -48 -79.5t-85 -33.5h-666h-2q-47 0 -75 34q-21 26 -21 59q0 10 2 20z" />
<glyph unicode="F" horiz-adv-x="1228" d="M225 113l213 1208q8 46 47 79.5t86 33.5h2h2h664q45 0 73 -34q21 -25 21 -57q0 -11 -2 -22q-8 -47 -47 -81t-86 -34h-553l-67 -377h477q47 -1 75 -33q21 -25 21 -59q0 -10 -2 -20q-9 -47 -48 -80t-85 -33h-477l-88 -491q-8 -46 -47.5 -79.5t-86.5 -33.5q-45 0 -73 34 q-21 25 -21 57q0 11 2 22z" />
<glyph unicode="G" horiz-adv-x="1638" d="M219 719q35 196 163 361t313.5 260.5t383.5 95.5q259 0 428 -156q30 -26 30 -68q0 -3 -1 -6q-2 -47 -37 -84t-83 -43q-8 -1 -15 -1q-37 0 -64 24q-121 108 -299 108q-209 0 -385 -145q-173 -147 -207 -346q-8 -43 -8 -84q0 -53 13 -103q23 -90 81 -157q58 -69 144 -107.5 t190 -38.5q147 0 287 78l49 273h-284q-46 0 -74 34q-21 25 -21 57q0 10 2 21q7 47 46.5 80t86.5 33h394h2q47 0 74 -33q22 -26 22 -60q0 -9 -2 -20l-78 -442q-2 -12 -10 -31l-6 -12l-2 -2q-16 -29 -43 -47q-229 -156 -482 -156h-2q-148 1 -273 57.5t-207 152.5t-117 228 q-20 77 -20 157q0 60 11 122z" />
<glyph unicode="H" horiz-adv-x="1556" d="M225 113l211 1208q9 46 48.5 79.5t86.5 33.5q46 0 74 -34q21 -25 21 -57q0 -10 -2 -22l-86 -492h530l86 492q9 46 48 79.5t85 33.5q47 0 75 -34q21 -26 21 -59q0 -10 -2 -20l-213 -1208q-7 -46 -47 -79.5t-86 -33.5q-47 0 -75 34q-21 26 -21 59q0 10 2 20l86 491h-530 l-86 -491q-8 -46 -47.5 -79.5t-86.5 -33.5q-45 0 -73 34q-21 25 -21 57q0 11 2 22z" />
<glyph unicode="I" horiz-adv-x="624" d="M238 111l213 1208q9 46 48 79.5t85 33.5t74 -34q21 -26 22 -59q0 -10 -2 -20l-213 -1208q-7 -46 -47 -79.5t-86 -33.5t-74 34q-21 26 -22 59q0 10 2 20z" />
<glyph unicode="J" horiz-adv-x="1216" d="M94 350q-1 8 -1 15q0 36 24 71q29 43 76 58q18 5 35 5q27 0 50 -13q38 -22 44 -66q12 -86 76 -141q64 -54 154 -54h3q117 0 214.5 82t117.5 199l143 813q7 46 47 79.5t86 33.5q47 0 75 -34q21 -25 21 -59q0 -10 -2 -20l-143 -813q-24 -138 -112.5 -255t-218 -185 t-267.5 -68q-168 0 -284 98.5t-138 253.5z" />
<glyph unicode="K" horiz-adv-x="1464" d="M225 113l213 1208q8 46 47 79.5t86 33.5q46 0 74 -34q21 -25 21 -57q0 -10 -2 -22l-105 -592l791 672q40 32 86.5 32t72.5 -32q22 -26 22 -61q0 -10 -2 -20q-8 -47 -46 -79l-537 -457l389 -598q14 -23 14 -50q-1 -16 -5 -34q-14 -46 -54 -75q-34 -27 -76 -27 q-55 0 -79 41l-377 584l-254 -217l-53 -295q-8 -46 -47.5 -79.5t-86.5 -33.5q-45 0 -73 34q-21 25 -21 57q0 11 2 22z" />
<glyph unicode="L" horiz-adv-x="1267" d="M225 119l213 1206q7 47 46.5 80t86.5 33q46 0 74 -33q21 -25 21 -58q0 -11 -2 -22l-193 -1094h555q46 0 74 -33q21 -26 22 -59q0 -10 -2 -20q-9 -47 -48.5 -81t-86.5 -34h-663q-1 2 -3 2q0 -2 -2 -2q-45 0 -73 34q-21 26 -21 59q0 10 2 22z" />
<glyph unicode="M" horiz-adv-x="1777" d="M223 117l213 1206q7 47 46.5 80t86.5 33h2h7q55 0 77 -47l308 -566l507 568q42 45 96 45h7h2q47 0 73 -33q21 -26 20 -61q0 -9 -1 -19l-213 -1206q-8 -47 -47 -81t-86 -34t-75 34q-21 26 -21 60q0 10 2 21l151 860l-364 -410q-44 -47 -101 -47h-4h-2q-60 0 -84 47 l-221 410l-151 -860q-9 -47 -48.5 -81t-85.5 -34q-47 0 -75 34q-21 26 -21 60q0 10 2 21z" />
<glyph unicode="N" horiz-adv-x="1617" d="M225 113l211 1202q10 61 66 96q32 22 67 22q9 1 19 -1q45 -8 65 -46l504 -925l150 854q9 46 48 79t85 33t74 -33q21 -26 22 -59q0 -10 -2 -20l-213 -1202q-7 -47 -46.5 -80t-86.5 -33q-53 0 -78 39q0 1 -3.5 5.5t-4.5 8.5l-500 918l-151 -858q-7 -47 -46.5 -80t-87.5 -33 q-45 0 -73 33q-21 25 -21 58q0 10 2 22z" />
<glyph unicode="O" horiz-adv-x="1740" d="M184 715q26 144 101.5 275t185.5 229q111 100 246.5 156.5t275.5 56.5q139 0 255 -56.5t192 -156.5q76 -98 104 -229q15 -69 14 -141q0 -66 -12 -134q-24 -145 -98.5 -275t-185.5 -229q-111 -100 -247 -156.5t-276 -56.5t-255.5 56.5t-190.5 156.5q-75 99 -105 229 q-16 69 -16 142q0 65 12 133zM412 715q-9 -51 -9 -99q0 -142 82 -251q107 -139 295 -142q186 3 344 142q160 147 197 350q9 51 9 98q0 142 -83 250q-52 67 -128 104t-167 37q-187 0 -344 -141q-158 -142 -196 -348z" />
<glyph unicode="P" horiz-adv-x="1193" d="M223 115l213 1208q9 46 48 79.5t85 33.5h2h2h363q120 0 211 -59t131 -160q27 -67 27 -141q0 -39 -7 -79q-32 -182 -183 -310t-333 -130h-254l-77 -442q-7 -46 -47.5 -79.5t-86.5 -33.5q-47 0 -75 34q-21 26 -21 59q0 10 2 20zM569 784h252q88 0 161.5 62.5t88.5 150.5 q3 20 3 39q0 62 -38 110q-50 62 -139 62h-254z" />
<glyph unicode="Q" horiz-adv-x="1728" d="M174 707q24 154 103.5 293.5t197.5 246.5q123 106 267 167t292 61q149 0 273 -61t204 -167q80 -107 111 -247q17 -74 17 -152q0 -69 -13 -141q-24 -154 -103.5 -292.5t-197.5 -246.5q-137 -114 -270 -168l-47 -20q126 -76 219 -76q96 0 217 80q39 26 79 26q8 0 15 -1 q49 -6 72 -46q16 -25 16 -54q0 -17 -6 -35q-15 -49 -61 -81q-186 -129 -373 -129h-2q-176 0 -359 123q-61 33 -118 33q-45 0 -92 -14t-62 -23q-32 -16 -60 -16q-34 0 -63 22q-2 1 -5.5 2t-4.5 2q0 2 -2 2q-21 21 -27 45q-4 15 -4 30q0 31 17 64q26 48 75 68l4 2 q-122 67 -194 164q-83 106 -113 244q-16 71 -16 147q0 72 14 148zM414 707q-8 -50 -8 -98q0 -54 10 -105q21 -97 76 -170q57 -71 138 -111.5t177 -40.5t191.5 40.5t177.5 111.5q173 160 210 373q9 55 9 106q0 156 -86 268q-117 148 -318 148q-199 0 -366 -148 q-175 -158 -211 -374z" />
<glyph unicode="R" horiz-adv-x="1280" d="M197 113l213 1208q8 46 47 79.5t86 33.5h2h364q119 0 209.5 -59t131.5 -160q27 -67 27 -141q0 -38 -7 -79q-17 -101 -74.5 -189t-142.5 -149q37 -43 55 -75q35 -67 36 -150q0 -35 -7 -72q-12 -62 -12 -101q0 -10 1 -19q49 -20 58 -70q1 -8 1 -15q1 -36 -23 -72 q-28 -43 -75 -56q-23 -9 -47 -9q-39 0 -75 23q-39 28 -54 74q-15 41 -15 106q0 60 13 139q3 17 3 32q0 30 -11 54q-13 32 -51 62q-32 24 -107 49h-241l-80 -444q-8 -46 -47 -79.5t-86 -33.5q-45 0 -73 34q-21 25 -21 57q0 11 2 22zM541 782h254q87 0 159.5 62.5t89.5 150.5 q3 20 3 38q1 63 -39 111q-52 62 -140 62h-252z" />
<glyph unicode="S" horiz-adv-x="1366" d="M145 268q3 42 35 76q32 32 76 36q6 1 11 1q36 0 61 -23q64 -62 160 -108q94 -45 192 -45h4q146 0 260 74q97 64 113 143q2 12 2 22q0 23 -8 41q-19 38 -52 60q-79 60 -258 96h-2h-2q-142 28 -241 78q-117 62 -160 155q-22 52 -22 108q0 26 5 54q17 88 74 163.5t139 127.5 q164 107 363 107q55 0 109 -11.5t89.5 -24.5t82 -40.5t64.5 -40t60 -43.5q33 -24 33 -67q0 -40 -28 -74q-31 -37 -73 -45q-11 -2 -21 -2q-29 0 -52 18q-57 42 -93 64t-92 42q-54 19 -108 19h-6h-11q-126 0 -226 -66q-87 -60 -99 -127q-6 -32 6 -55q9 -25 43 -51 q72 -56 236 -88h4q153 -28 262 -84q125 -68 168 -164q23 -52 24 -110q0 -30 -7 -62q-17 -92 -77 -172.5t-147 -136.5q-177 -113 -389 -113q-148 1 -269 59.5t-208 141.5q-25 23 -25 60v7z" />
<glyph unicode="T" horiz-adv-x="1327" d="M115 1321q7 47 46.5 80t86.5 33h870q46 0 74 -33q21 -26 22 -60q0 -10 -2 -20q-7 -47 -47 -80t-86 -33h-323l-193 -1093q-8 -47 -47 -81t-86 -34q-46 0 -74 34q-21 26 -20 59q0 11 2 22l192 1093h-323q-45 0 -73 33q-21 25 -21 58q0 10 2 22z" />
<glyph unicode="U" horiz-adv-x="1667" d="M272 592l127 729q9 47 49 80t87 33q45 0 73 -33q21 -25 21 -58q0 -11 -2 -22l-129 -729q-6 -34 -5 -67q0 -109 67 -191q88 -107 239 -107q152 0 278 107t152 258l129 729q7 47 47 80t86 33q47 0 75 -33q21 -26 21 -60q0 -10 -2 -20l-129 -729q-28 -160 -131 -296.5 t-253.5 -216t-311.5 -79.5t-284 80q-122 80 -177 216q-36 90 -36 191q0 51 9 105z" />
<glyph unicode="V" horiz-adv-x="1536" d="M129 1278q-3 12 -3 25q0 31 18 62q26 43 73 62q24 10 46 10q21 0 41 -9q40 -18 50 -62l236 -958l571 958q26 44 73 62q23 9 44 9q22 0 43 -10q41 -19 51 -62q3 -12 3 -25q0 -31 -19 -62l-721 -1206q-10 -15 -12 -17t-2 -4q-2 -2 -7.5 -6t-7.5 -6l-4 -4q-6 -6 -14 -10 q-2 -2 -4 -2q-14 -9 -19 -11h-2l-2 -2q-12 -4 -18 -4l-4 -2q-4 0 -11 -1t-10 -1q-4 0 -10.5 1t-9.5 1q-1 0 -2 1t-2 1q-5 0 -17 4l-2 2q-3 1 -18 11l-2 2q-2 1 -11 10l-4 4q-4 8 -8 14v2q-6 6 -6 17z" />
<glyph unicode="W" horiz-adv-x="2256" d="M137 1278q-3 12 -3 25q0 31 18 61q25 42 71 61q24 10 47 10q20 -1 40 -9q40 -18 52 -60l234 -958l381 634q20 33 52 51.5t67 18.5q36 0 62.5 -18.5t33.5 -51.5l156 -634l573 958q26 42 72 60q22 8 43 9q22 0 43 -10q41 -19 51 -61q3 -12 3 -24q0 -31 -19 -62l-721 -1206 q-2 -3 -6.5 -9.5t-6.5 -9.5l-2 -2q-2 -2 -6 -7t-6 -7q-1 0 -3 -1t-3 -1q-8 -8 -14 -12q-3 -1 -3 -3q-3 -2 -10 -5t-10 -5h-2h-2q-12 -4 -16 -6h-7q-6 -2 -20 -2q-13 0 -19 2h-6q-6 2 -14 6h-4q-2 1 -8 4.5t-8 5.5l-3 3l-12 12l-2 2q-2 2 -8 14l-2 2q-1 3 -3 9.5t-3 9.5 l-158 641l-383 -641q-2 -3 -6 -9.5t-6 -9.5q-1 0 -2 -1t-2 -1q-2 -2 -6.5 -7t-6.5 -7q-1 0 -2 -1t-2 -1q-2 -2 -7 -6t-7 -6q-1 0 -4 -3q-3 -2 -9.5 -5t-9.5 -5h-2h-4q-3 -1 -8 -3t-8 -3h-6q-6 -2 -19 -2h-2q-12 0 -18 2h-6q-6 3 -15 6h-2h-2q-3 2 -8 5t-8 5l-2 3 q-8 8 -10 12q-1 0 -2 1t-2 1q-1 2 -4.5 7t-4.5 7v2q-3 5 -8 19z" />
<glyph unicode="X" horiz-adv-x="1478" d="M197 182l487 537l-297 536q-13 23 -13 48q0 18 6 37q15 47 58 75q34 22 69 22q9 1 19 -1q46 -8 66 -45l266 -480l434 480q34 37 82 45q10 2 20 1q35 0 60 -22q33 -27 33 -72v-3q-1 -47 -35 -85l-487 -536l297 -537q12 -21 12 -46q0 -18 -6 -37q-16 -46 -58 -74 q-41 -23 -71 -23q-57 0 -84 47l-264 479l-435 -479q-41 -47 -100 -47q-35 0 -61 23q-33 27 -33 71q0 48 35 86z" />
<glyph unicode="Y" horiz-adv-x="1236" d="M133 1336q15 45 57 73q34 22 69 22q10 0 19 -1q46 -8 68 -46l268 -483l439 483q34 38 81 46q11 1 20 1q35 0 60 -22q33 -27 33 -71q0 -48 -35 -87l-526 -579l-98 -561q-7 -46 -47 -79.5t-86 -33.5q-47 0 -75 34q-22 26 -22 59q0 10 2 20l101 561l-322 579q-12 23 -12 48 q0 18 6 37z" />
<glyph unicode="Z" horiz-adv-x="1366" d="M145 90q0 3 1 7.5t1 6.5v7v2q1 2 2 5t2 5t1 4q2 4 2 8l6 12q1 2 3 5.5t3 5.5q1 1 3 4t3 4q2 4 8 10v2l932 1026h-657q-47 0 -75 34q-22 26 -22 61q0 10 2 20q7 46 47.5 79.5t86.5 33.5h882h2q9 0 13 -2h8q2 -1 6 -2.5t6 -2.5q1 -1 4 -2t4 -2q4 0 8 -4q2 -1 5.5 -3t5.5 -3 l2 -2l4 -4l8 -8l4 -8q1 -2 3 -5.5t3 -5.5q1 -1 2 -4t2 -4q0 -2 1 -5.5t1 -4.5q0 -2 1 -5.5t1 -4.5v-13v-12q0 -4 -2 -6v-2q0 -6 -4 -14q0 -7 -2 -9q-4 -8 -6 -10q0 -4 -4 -12q-4 -4 -6 -8q-3 -2 -8 -11l-2 -2l-932 -1026h659q45 1 73 -33q21 -25 21 -59q0 -11 -2 -22 q-8 -46 -47 -79.5t-86 -33.5h-880q-15 0 -21 2q-4 0 -6 2q-2 0 -14 4q-2 2 -4 2q-2 1 -6.5 3t-6.5 3l-4 4q-2 0 -2 2q-1 0 -3 2.5t-3 2.5q-2 4 -6 8q-1 2 -3 5t-3 5q-4 4 -4 8q-4 4 -4 10q-1 1 -2.5 4.5t-2.5 4.5v12q0 1 -1 4t-1 4z" />
<glyph unicode="[" horiz-adv-x="880" d="M211 -133l258 1454q8 51 49 87t92 36h422q40 0 64 -29t18 -69q-7 -40 -42 -68.5t-75 -28.5h-305l-229 -1310h305q40 0 63.5 -28.5t16.5 -68.5q-6 -40 -40.5 -69t-74.5 -29h-422q-51 0 -79.5 36t-20.5 87z" />
<glyph unicode="\" d="M41.5 1348.5q17.5 43.5 58.5 60.5q44 19 87.5 1.5t62.5 -60.5l502 -1194q19 -43 0.5 -87t-62.5 -61q-16 -8 -41 -8q-33 0 -62 18t-42 50l-502 1196q-19 41 -1.5 84.5z" />
<glyph unicode="]" horiz-adv-x="880" d="M121 -158q7 40 42 68.5t75 28.5h305l229 1310h-305q-40 0 -63.5 28.5t-16.5 68.5q6 40 40.5 69t74.5 29h422q51 0 79.5 -36t20.5 -87l-258 -1454q-8 -51 -49 -87t-92 -36h-422q-40 0 -64 29t-18 69z" />
<glyph unicode="^" d="M170 1040q6 26 37 62l250 266q65 74 139 74h18q41 0 66 -18t47 -56l139 -266q16 -38 11 -62q-4 -19 -22.5 -30t-43.5 -11q-47 0 -74.5 19t-56.5 72l-109 190l-186 -190q-54 -54 -88 -72.5t-78 -18.5q-25 0 -39 11.5t-10 29.5z" />
<glyph unicode="_" horiz-adv-x="1228" d="M-37 -231q7 39 42 67.5t75 28.5h1237q40 0 62 -28t14 -68q-9 -40 -44 -68.5t-75 -28.5h-1237q-40 0 -61.5 28.5t-12.5 68.5z" />
<glyph unicode="`" d="M334 1456q0 29 48.5 54.5t98.5 25.5q62 0 99 -59l116 -181q19 -28 19 -45q0 -20 -18 -31.5t-46 -11.5q-45 0 -77 12t-66 44l-139 131q-35 31 -35 61z" />
<glyph unicode="a" horiz-adv-x="1267" d="M109 512q34 207 200 360q79 70 177 110t198 40q146 0 256 -86q14 37 48 61.5t73 24.5q45 0 71 -32q19 -23 19 -54q0 -11 -2 -23l-139 -800q-9 -46 -46 -78.5t-81 -32.5q-40 0 -65 25t-27 63q-143 -88 -287 -88q-99 0 -182.5 40.5t-137.5 111.5q-85 115 -85 256 q0 50 10 102zM324 512q-5 -30 -5 -58q0 -87 50 -151q62 -84 174 -84q110 0 200 84q98 85 119 209q6 31 6 60q0 85 -51 151q-64 84 -172 84q-106 0 -203 -84q-97 -88 -118 -211z" />
<glyph unicode="b" horiz-adv-x="1351" d="M203 109l209 1212q8 46 46.5 79.5t84.5 33.5q45 0 73 -34q21 -25 21 -57q0 -11 -2 -22l-64 -381q148 84 293 84q137 0 240 -69q102 -69 148 -187q30 -77 30 -164q0 -46 -8 -94q-24 -140 -110.5 -258t-214 -187t-265.5 -69q-151 0 -266 88q-15 -39 -49.5 -63.5 t-73.5 -24.5q-45 0 -73 33q-21 25 -21 58q0 10 2 22zM498 510q-5 -30 -5 -58q0 -87 50 -149q67 -86 182 -86q108 0 207 86q98 82 119 207q5 30 5 57q0 84 -48 150q-70 86 -185 86q-111 0 -207 -86q-96 -84 -118 -207z" />
<glyph unicode="c" horiz-adv-x="1169" d="M170 522q26 143 119.5 263.5t228.5 189.5t279 69q186 0 311 -112q29 -27 29 -70v-6q-2 -46 -37 -82q-34 -34 -81 -40q-8 -1 -15 -1q-37 0 -64 23q-71 65 -182 65q-130 0 -236.5 -88t-128.5 -211q-5 -28 -5 -54q0 -90 58 -158q75 -88 205 -89q111 0 207 68q34 23 70 23 q8 0 16 -1q44 -6 66 -43q13 -23 13 -48q0 -16 -5 -34q-14 -45 -55 -73q-160 -113 -351 -113q-108 0 -199.5 41t-151 110.5t-85.5 166.5q-15 56 -14 114q0 44 8 90z" />
<glyph unicode="d" horiz-adv-x="1351" d="M172 510q24 139 110.5 257t213.5 187.5t264 69.5q147 0 262 -88l61 387q7 45 46.5 78t84.5 33q46 0 73 -32q21 -26 21 -61q0 -9 -1 -18l-209 -1212q-9 -46 -47.5 -79.5t-83.5 -33.5q-39 0 -66 25.5t-29 62.5q-146 -88 -292 -88q-137 1 -239.5 70.5t-147.5 186.5 q-29 76 -29 162q0 45 8 93zM395 510q-6 -31 -6 -60q0 -81 49 -145q71 -84 180 -84t209 84q100 90 117 205q5 31 5 59q0 86 -48 148q-68 84 -180 84q-115 0 -209 -84q-100 -86 -117 -207z" />
<glyph unicode="e" horiz-adv-x="1247" d="M170 512q25 138 111.5 255.5t213.5 187t265 69.5q202 0 318 -134q94 -110 94 -268q0 -35 -5 -73q0 -8 -2 -10q0 -11 -4 -19q-10 -36 -44.5 -59t-76.5 -23h-653q0 -81 45 -135q24 -36 75.5 -61.5t104.5 -30.5q13 -1 25 -1q49 0 103 16q66 20 116 63q22 21 45 29t39.5 6 t32.5 -10t21.5 -12.5t9.5 -8.5q23 -26 23 -60v-7q-3 -38 -32 -68q-92 -86 -188 -122t-234 -36q-138 1 -239.5 70.5t-145.5 186.5q-28 74 -27 157q0 48 9 98zM408 612h579q-4 72 -72.5 139.5t-189.5 77.5q-63 -3 -118.5 -25t-94 -55.5t-65 -68t-39.5 -68.5z" />
<glyph unicode="f" horiz-adv-x="741" d="M143 948q9 46 48 79.5t85 33.5h54l6 29q19 118 74 200q29 44 76 78.5t94 46.5q58 19 125 19q47 0 75 -34q21 -25 21 -60q0 -10 -2 -21q-9 -46 -48 -79.5t-85 -33.5q-42 0 -54 -6q-10 -4 -14 -6q-22 -22 -37 -104l-4 -29h59q47 0 75 -33q22 -27 22 -60q0 -10 -2 -20 q-9 -47 -48 -80.5t-85 -33.5h-62l-127 -721q-7 -47 -46.5 -80t-86.5 -33q-46 0 -74 33q-20 25 -20 58q0 10 2 22l127 721h-53q-47 0 -75 34q-22 26 -22 60q0 10 2 20z" />
<glyph unicode="g" horiz-adv-x="1351" d="M147 504q38 214 207 364q80 72 179.5 114t199.5 42q151 0 262 -90q13 40 48 65t75 25q46 0 72 -32q20 -25 20 -57q0 -10 -2 -22l-71 -407v-2l-68 -381q-23 -135 -109.5 -249t-212 -180.5t-260.5 -66.5q-115 0 -208 49q-37 20 -45 64q-1 9 -1 18q0 34 21 66q28 41 74 56 q19 6 37 6q24 0 45 -11q56 -29 116 -29q99 0 186.5 63.5t121.5 158.5q-142 -84 -283 -84q-101 0 -185.5 41.5t-140.5 113.5q-55 71 -76 167q-11 50 -11 102q0 47 9 96zM369 504q-6 -31 -6 -60q0 -84 49 -151q67 -86 178 -86q113 0 205 86q46 39 78 94t42 117l3 2q5 29 5 56 q0 89 -53 155q-67 86 -174 86q-110 0 -209 -86q-98 -88 -118 -213z" />
<glyph unicode="h" horiz-adv-x="1255" d="M201 115l90 465l123 743q8 46 47 79.5t86 33.5t75 -34q21 -26 21 -59q0 -10 -2 -20l-55 -354q108 57 229 57t213 -60t134 -162q28 -68 27 -144q0 -39 -7 -80l-88 -465q-9 -46 -48 -79.5t-85 -33.5q-47 0 -75 34q-22 26 -22 59q0 10 2 20l88 465q4 22 4 43q0 64 -40 112 q-53 64 -144 64q-90 0 -165.5 -64t-92.5 -155l-88 -465q-9 -46 -48 -79.5t-85 -33.5q-47 0 -75 34q-21 26 -21 59q0 10 2 20z" />
<glyph unicode="i" horiz-adv-x="575" d="M203 111l149 800q8 46 47 79.5t86 33.5q46 0 74 -34q21 -25 21 -57q0 -10 -2 -22l-148 -800q-8 -46 -47 -79.5t-86 -33.5t-75 34q-21 26 -21 59q0 10 2 20zM410 1276l6 43q9 46 48 79.5t85 33.5q47 0 75 -34q21 -26 21 -59q0 -10 -2 -20l-8 -43q-8 -47 -47 -81t-86 -34 q-46 0 -74 34q-21 26 -20 59q0 10 2 22z" />
<glyph unicode="j" horiz-adv-x="509" d="M2 -289q7 47 47.5 81t87.5 34l197 1083q7 49 47 82t90 33q47 0 74 -33q21 -26 21 -63q0 -9 -1 -19l-196 -1083q-17 -95 -97.5 -163.5t-175.5 -68.5q-48 0 -76 34q-20 26 -20 60q0 11 2 23zM397 1276l9 43q8 47 47 81t88 34q47 0 75 -34q23 -27 23 -61q0 -10 -2 -20 l-8 -43q-8 -50 -48 -84.5t-89 -34.5q-46 0 -74 35q-22 28 -22 65q0 9 1 19z" />
<glyph unicode="k" horiz-adv-x="1146" d="M203 113l213 1208q8 46 47 79.5t86 33.5q45 0 73 -34q21 -25 21 -57q0 -11 -2 -22l-125 -711l496 422q40 32 86.5 32t72.5 -32q22 -26 22 -61q0 -10 -2 -20q-8 -47 -46 -79l-361 -307l246 -381q15 -23 15 -50q-1 -16 -5 -32q-12 -46 -53 -75q-37 -27 -78 -27 q-53 0 -80 41l-235 365l-133 -115l-33 -178q-8 -46 -47 -79.5t-86 -33.5q-45 0 -73 34q-21 25 -21 57q0 11 2 22z" />
<glyph unicode="l" horiz-adv-x="509" d="M215 113l213 1206q9 47 48.5 80t86.5 33t73 -33q21 -26 21 -61q0 -9 -2 -19l-213 -1206q-8 -47 -47 -81t-86 -34q-45 0 -73 34q-22 27 -22 62q0 9 1 19z" />
<glyph unicode="m" horiz-adv-x="1947" d="M203 115l84 483l55 317q9 46 46 77.5t83 31.5q32 0 55.5 -16.5t32.5 -44.5q109 61 229 61q95 0 171 -37t124 -104q151 141 344 141q177 0 279 -124q79 -96 79 -223q0 -38 -7 -79l-86 -483q-6 -45 -44 -78t-83 -33t-71 32q-20 24 -19 57q0 11 2 22l84 483q3 20 3 39 q0 63 -38 111q-50 62 -137 61q-86 0 -157.5 -60.5t-88.5 -146.5q0 -2 -2 -4l-84 -483q-9 -46 -46.5 -78.5t-82.5 -32.5q-44 0 -70 32q-21 26 -21 62q0 8 1 17l86 483v4q3 19 3 36q0 62 -40 110q-51 60 -137 61q-85 0 -158 -62t-88 -149l-86 -483q-7 -46 -45 -78.5t-82 -32.5 q-45 0 -71 32q-20 24 -19 57q0 10 2 22z" />
<glyph unicode="n" horiz-adv-x="1255" d="M201 113l86 483l55 319q9 44 47 76.5t82 32.5q32 0 55.5 -17t30.5 -46q111 63 231 63q179 0 282 -125q79 -95 78 -222q0 -39 -7 -81l-86 -483q-6 -45 -43 -78t-82 -33q-46 0 -72 32q-20 25 -20 58q0 10 2 21l86 483q3 20 3 39q-1 63 -39 111q-50 62 -138 61.5t-160.5 -62 t-85.5 -149.5l-88 -483q-6 -45 -44 -78t-83 -33t-71 32q-21 26 -20 60q0 9 1 19z" />
<glyph unicode="o" horiz-adv-x="1280" d="M168 510q37 207 203 360q81 71 179 112.5t198 41.5t182.5 -41t140.5 -113q85 -115 85 -261q0 -48 -9 -99q-38 -212 -205 -360q-78 -72 -176 -113t-199 -41q-100 0 -183 41t-140 113q-85 112 -85 260q0 48 9 100zM385 510q-5 -31 -5 -59q0 -89 50 -152q67 -86 174 -86 q108 0 207 86q95 85 119 211q5 31 5 59q0 88 -52 150q-61 86 -172 86q-112 0 -207 -86q-95 -85 -119 -209z" />
<glyph unicode="p" horiz-adv-x="1351" d="M201 -276l211 1187q7 47 46 80t85 33q39 0 64.5 -24.5t27.5 -61.5q146 86 295 86q103 0 189 -41t140 -110.5t76 -164.5q12 -51 12 -106q0 -45 -8 -92q-24 -138 -111.5 -256.5t-214.5 -188.5t-263 -71q-155 3 -263 88l-61 -358q-9 -46 -48 -79.5t-85 -33.5t-73 33 q-21 26 -21 60q0 9 2 20zM565 510q-7 -32 -7 -62q0 -80 50 -143q70 -86 180 -86t209 86q101 81 119 205q5 30 5 58q0 87 -50 149q-71 84 -178 84q-113 0 -213 -84q-98 -91 -115 -207z" />
<glyph unicode="q" horiz-adv-x="1351" d="M172 510q24 139 110.5 257t213.5 186.5t264 68.5q153 0 262 -86q15 38 50 62t75 24q45 0 72 -32q20 -24 20 -56q0 -11 -2 -23l-70 -399v-2l-139 -780q-8 -46 -46 -79.5t-85 -33.5q-45 0 -72 34q-20 25 -20 57q0 11 2 22l63 354q-138 -83 -290 -86q-137 1 -239.5 70.5 t-147.5 186.5q-29 76 -29 162q0 45 8 93zM393 510q-5 -29 -5 -56q0 -85 50 -149q71 -84 180 -84q110 0 207 84q98 85 119 205v2q5 29 5 57q0 85 -50 148q-65 84 -180 84q-110 0 -207 -84q-98 -85 -119 -207z" />
<glyph unicode="r" horiz-adv-x="899" d="M201 109l143 806q6 44 44 76.5t83 32.5t71 -32q20 -25 21 -57q0 -10 -2 -20l-4 -14q27 21 57 39q130 84 271 84q45 0 71 -32q20 -25 21 -57q0 -10 -2 -20q-9 -45 -46 -77.5t-81 -32.5q-65 0 -131 -37q-50 -28 -113 -98q-80 -92 -117 -174l-67 -387q-7 -44 -46 -76.5 t-83 -32.5t-71 32q-21 25 -21 57q0 10 2 20z" />
<glyph unicode="s" horiz-adv-x="1007" d="M118 216q4 43 38 77q36 37 82 41h10q40 0 67 -27q34 -35 91 -61q55 -25 108 -25h4q83 0 148 37q44 32 51 59q0 15 -2 23q-8 12 -23 27q-57 36 -157 55h-3q-108 21 -170 53q-84 53 -114 121q-17 46 -17 94q0 17 2 33q13 65 56.5 123.5t103.5 99.5q127 78 264 78 q50 0 94.5 -10.5t82.5 -31.5t59 -35t51 -38q35 -24 35 -70q0 -43 -31 -79q-29 -36 -75 -46q-13 -3 -24 -3q-31 0 -54 18q-52 39 -90.5 58.5t-83.5 19.5q-80 0 -129 -39q-35 -20 -41 -45v-16q6 -11 20 -21q35 -32 137 -47l2 -2h2q112 -20 181 -59q89 -47 122 -123 q19 -42 19 -92q0 -22 -4 -46q-13 -69 -59 -130t-109 -103q-132 -82 -281 -82q-193 2 -336 141q-27 27 -27 64v9z" />
<glyph unicode="t" horiz-adv-x="819" d="M98 909q8 47 47 81t86 34h60l45 299q9 46 48 79.5t85 33.5q47 0 75 -34q21 -26 21 -59q0 -10 -2 -20l-45 -299h53q46 0 74 -34q21 -26 21 -59q0 -11 -2 -22q-8 -46 -47.5 -79t-86.5 -33h-53l-106 -568q47 1 75 -33q21 -26 21 -61q0 -10 -2 -20q-9 -46 -48 -79.5 t-85 -33.5q-94 0 -150 66q-42 51 -43 118q0 21 4 43l109 568h-62q-46 0 -74 33q-21 25 -20 57q0 11 2 22z" />
<glyph unicode="u" horiz-adv-x="1255" d="M213 430l84 485q9 46 46 77.5t81 31.5q46 0 72 -32q20 -24 20 -56q0 -10 -2 -21l-86 -485q-3 -19 -4 -38q0 -62 40 -110q52 -62 138 -61q88 0 160.5 61.5t87.5 147.5l86 485q7 45 44.5 77t82.5 32t71 -32q19 -23 19 -54q0 -11 -2 -23l-84 -485q-31 -177 -178 -302.5 t-324 -125.5q-178 0 -281 126q-79 96 -79 221q0 39 8 81z" />
<glyph unicode="v" horiz-adv-x="1191" d="M123 862q-3 12 -3 24q0 29 16 58q24 41 69 60q22 8 42.5 8t40.5 -8q39 -17 48 -58l139 -561l334 561q25 41 69 58q22 8 43 8t40 -8q37 -20 47 -60q3 -11 2 -21q0 -30 -19 -61l-475 -799q-2 -4 -10 -16q-1 0 -2 -1t-2 -1q-2 -2 -5 -6t-5 -6q-1 0 -2.5 -1t-2.5 -1 q-8 -8 -14 -11q-2 -2 -4 -2q-12 -8 -18 -10h-2l-3 -2q-12 -4 -16 -4l-4 -2q-3 0 -9 -1t-9 -1h-2q-3 0 -9.5 1t-9.5 1l-4 2q-4 0 -16 4l-2 2q-7 2 -15 10q-2 0 -2 2q-2 1 -12 11l-2 2q-4 4 -8 12l-2 2q-2 6 -7 16z" />
<glyph unicode="w" horiz-adv-x="1763" d="M133 860q-3 12 -3 25q0 29 16 57q24 42 67 57q23 9 45 9q20 0 38 -8q39 -16 48 -56l137 -557l205 344q20 32 51 50q28 16 56 16h6q34 2 58.5 -16t31.5 -50l84 -344l334 557q25 40 69 56q21 8 40 8q21 0 40 -9q38 -15 48 -57q3 -12 3 -23q0 -30 -18 -59l-473 -790 q-10 -15 -12 -17v-4q-2 -2 -6.5 -6t-6.5 -6l-4 -4q-9 -3 -14 -8q-1 0 -2 -1t-2 -1q-3 -2 -9.5 -5.5t-9.5 -5.5q-2 0 -4 -2q-6 0 -14 -4h-6q-6 -2 -21 -2q-10 0 -16 2h-6q-8 4 -15 4l-2 2h-2q-9 6 -14 11q-1 0 -2 1t-2 1q-3 5 -8 8l-4 4q-1 2 -3.5 6t-3.5 6q-2 2 -2 4 q-1 2 -6 17l-86 350l-211 -350q0 -10 -10 -17q0 -2 -2 -4l-12 -12l-4 -4q-14 -7 -15 -8q-2 -2 -4 -2q-3 -2 -8 -5.5t-8 -5.5h-2q-2 0 -2 -2q-9 0 -17 -4h-6q-6 -2 -18 -2q-13 0 -19 2h-6q-8 4 -12 4q-2 2 -4 2h-2q-1 1 -6.5 5t-6.5 6q-1 0 -2 1t-2 1q-2 4 -10 8q0 1 -1 2 t-1 2q-4 4 -8 12q0 1 -1 2t-1 2q-1 2 -6 17z" />
<glyph unicode="x" horiz-adv-x="1167" d="M180 172l303 334l-184 332q-12 21 -12 45q1 17 7 36q14 44 54 70q32 21 66 21q8 0 17 -2q43 -6 65 -43l153 -277l254 277q31 37 76 43q9 1 17 2q34 0 59 -21q31 -25 31 -67v-3q-1 -44 -33 -81l-303 -332l184 -334q12 -21 12 -44q0 -17 -6 -35q-14 -44 -55 -70 q-34 -21 -68 -21q-53 0 -80 43l-153 279l-250 -279q-43 -43 -96 -43q-36 0 -60 21q-31 26 -31 69q0 44 33 80z" />
<glyph unicode="y" horiz-adv-x="1204" d="M128 -252q-1 9 -1 18q0 34 20 66q28 40 75 54q19 7 37 7q25 0 46 -12q54 -26 115 -26q89 0 169.5 51.5t121.5 134.5q-98 -49 -207 -49q-117 0 -206.5 58t-129.5 158q-28 66 -28 141q0 36 7 75l86 491q9 46 47 77.5t82 31.5q46 0 73 -32q21 -25 21 -59q0 -9 -1 -18 l-88 -491q-3 -20 -3 -39q0 -63 39 -111q51 -63 140 -63t162 62.5t90 150.5l84 491q7 34 28 58q44 51 101 51q39 0 59 -20q35 -24 35 -67q0 -11 -2 -22l-29 -157l-110 -631q-23 -134 -109 -247.5t-211.5 -180t-259.5 -66.5q-116 0 -209 52q-37 20 -44 63z" />
<glyph unicode="z" horiz-adv-x="1134" d="M125 88q0 2 1 5.5t1 4.5v8v3q1 2 2 6t2 6t2 5t2 5q0 2 4 10q1 2 3 5.5t3 5.5q0 6 7 6q4 8 8 10v2l573 633h-373q-46 1 -72 33q-20 25 -20 57q0 10 2 20q7 45 44.5 77t82.5 32h590h2q8 0 12 -2h11q1 -1 4 -2t4 -2q4 0 8 -4q4 0 8 -4q1 -1 5 -2t6 -2q1 -1 3 -3.5t3 -3.5 q4 -4 6 -8q1 -1 3 -4t3 -4q4 -4 4 -8q4 -8 4 -10q2 -2 2 -9q2 -4 2 -12q0 -1 1 -4.5t1 -5.5t-1 -6t-1 -6v-7v-2q-4 -8 -4 -12q-2 -2 -2 -8q-4 -8 -6 -10q-5 -10 -6 -11q-1 -2 -3 -5t-3 -5q-1 -1 -3 -4t-3 -4l-3 -2l-573 -633h373q46 0 72 -33q20 -25 20 -58q0 -10 -2 -20 q-7 -44 -45 -76t-82 -32h-590q-14 0 -20 2q-5 0 -7 2q-4 0 -12 4q-2 2 -4 2q-2 1 -5 3t-5 3l-4 4h-2q-1 1 -3 3.5t-3 3.5q-6 6 -7 8q-1 1 -3 4t-3 4q-4 4 -4 8q-4 4 -4 8q-1 1 -2 5t-2 6v8q0 2 -1 6t-1 6z" />
<glyph unicode="{" horiz-adv-x="983" d="M123 561q8 42 40 68.5t81 29.5q105 4 159 56.5t74 167.5q8 48 21 147q14 78 42.5 136.5t82 109t139 87t207.5 62.5q50 10 78 -14.5t20 -69.5q-5 -34 -26.5 -55.5t-45.5 -28.5q-78 -23 -127 -47t-79 -56.5t-44 -68t-24 -92.5q-19 -128 -23 -151q-21 -116 -85.5 -181.5 t-176.5 -99.5q102 -36 143.5 -100.5t20.5 -179.5q-3 -15 -15.5 -72t-15.5 -80q-14 -69 -6 -117t51 -82.5t136 -64.5q21 -7 34.5 -29t8.5 -55q-8 -44 -45.5 -69t-81.5 -15q-113 26 -186 63.5t-108.5 86t-44 110.5t6.5 137q2 18 14 77t14 71q20 114 -15 166t-138 55 q-47 3 -70.5 30t-15.5 68z" />
<glyph unicode="|" horiz-adv-x="585" d="M258 -174l305 1720q7 41 43 70t76 29q41 0 64.5 -29t15.5 -70l-307 -1720q-7 -41 -43 -69.5t-78 -28.5q-39 0 -61 28.5t-15 69.5z" />
<glyph unicode="}" horiz-adv-x="983" d="M119 -219q5 34 26 55.5t45 28.5q78 23 127.5 47t79.5 56.5t44 68.5t24 92q2 13 6 45.5t8 60t8 46.5q21 115 86 180.5t177 99.5q-102 35 -143.5 100.5t-20.5 180.5q3 14 15 70.5t15 80.5q14 69 6.5 117t-50.5 82.5t-136 64.5q-21 7 -34.5 29t-8.5 55q8 44 45.5 69t81.5 15 q113 -26 186 -63.5t108.5 -86t44 -110.5t-6.5 -137q-2 -17 -14.5 -75t-14.5 -72q-20 -114 15.5 -166.5t138.5 -55.5q47 -3 70.5 -30t15.5 -68q-8 -42 -40 -68.5t-81 -29.5q-105 -4 -159 -56t-74 -167q-8 -45 -21 -148q-14 -78 -42.5 -136.5t-82 -109t-139 -87t-207.5 -62.5 q-50 -10 -78 14.5t-20 69.5z" />
<glyph unicode="~" horiz-adv-x="942" d="M174 535q0 29 8 45q34 95 81.5 140.5t127.5 45.5q62 0 162 -40t131 -40q35 0 55.5 14.5t40.5 49.5q22 43 66 43q30 0 53 -21.5t23 -48.5q0 -26 -9 -47q-34 -95 -81.5 -141t-126.5 -46q-62 0 -162 41t-131 41q-35 0 -56 -15t-41 -50q-21 -41 -65 -41q-31 0 -53.5 21 t-22.5 49z" />
<glyph unicode="&#xa1;" horiz-adv-x="516" d="M203 117l133 757q9 47 48.5 81t86.5 34q46 0 73.5 -34t18.5 -81l-133 -757q-7 -47 -47 -81t-86 -34q-47 0 -75 34t-19 81zM408 1278l8 45q8 46 47 79.5t86 33.5t74.5 -33.5t19.5 -79.5l-8 -45q-7 -46 -47 -79.5t-86 -33.5q-47 0 -74.5 33.5t-19.5 79.5z" />
<glyph unicode="&#xa2;" horiz-adv-x="1189" d="M151 -82.5q-11 43.5 15 86.5l84 141q-63 73 -89.5 169.5t-6.5 203.5q25 143 118 263.5t227.5 190t278.5 70.5h8l93 156q26 43 72 60t87 -1q38 -17 48 -60.5t-15 -84.5l-74 -121q56 -29 93 -63q30 -29 27.5 -74t-32.5 -80q-40 -38 -85 -43.5t-76 23.5q-11 10 -47 32 l-330 -555q37 -12 86 -12q107 0 207 66q41 28 85 21.5t70 -44.5q19 -34 4.5 -78t-55.5 -75q-168 -111 -350 -111q-88 0 -170 29l-66 -111q-20 -32 -51.5 -50t-64.5 -18q-24 0 -39 9q-41 17 -52 60.5zM375 518q-14 -73 12 -143l256 430q-100 -29 -175.5 -109t-92.5 -178z" />
<glyph unicode="&#xa3;" horiz-adv-x="1318" d="M143 88q5 32 26.5 56t57.5 34l109 31l63 360h-65q-44 0 -69.5 31.5t-16.5 75.5q6 43 43.5 74.5t81.5 31.5h65l33 189q41 228 191 356q146 127 366 127q244 0 369 -166q32 -40 24 -90q-9 -52 -51.5 -87.5t-95.5 -35.5q-54 0 -84 39q-41 54 -87.5 80.5t-113.5 26.5 q-89 0 -160 -58q-80 -71 -104 -198l-31 -183h414q42 0 68 -31.5t20 -74.5q-9 -44 -46.5 -75.5t-80.5 -31.5h-414l-61 -350h565q46 0 72.5 -32t19.5 -78q-9 -46 -47 -77.5t-84 -31.5h-897q-42 0 -64 25.5t-16 62.5z" />
<glyph unicode="&#xa5;" horiz-adv-x="1404" d="M117 303q6 38 37.5 65t68.5 27h316l26 150h-315q-37 0 -59 26.5t-15 63.5q6 38 37 65t68 27h243l-284 516q-23 41 -17 86q9 48 52 83.5t96 35.5q69 0 106 -70l264 -534l455 532q64 72 129 72q51 0 79.5 -32t18.5 -85q-8 -48 -45 -88l-473 -516h248q37 0 59.5 -27 t16.5 -65q-8 -37 -39 -63.5t-68 -26.5h-315l-27 -150h316q37 0 58 -27t15 -65q-6 -37 -37.5 -63.5t-68.5 -26.5h-315l-17 -98q-9 -51 -50.5 -86t-92.5 -35t-79.5 35t-19.5 86l17 98h-316q-37 0 -58 26.5t-15 63.5z" />
<glyph unicode="&#xa8;" d="M270 1333l2 15q10 55 57 91t105 36q56 0 86.5 -36t20.5 -91l-2 -15q-12 -55 -58 -90t-102 -35q-58 0 -89.5 35t-19.5 90zM678 1333l2 15q10 55 57 91t105 36q56 0 86 -36t20 -91l-2 -15q-12 -55 -58 -90t-102 -35q-58 0 -89 35t-19 90z" />
<glyph unicode="&#xa9;" horiz-adv-x="1699" d="M109 713v4q0 149 58 285.5t157 236.5t237 159.5t291 59.5t290.5 -59t235.5 -158t155.5 -235t57.5 -285v-4q0 -149 -58 -285.5t-157 -237t-237 -160t-291 -59.5t-290.5 59t-235.5 158.5t-155.5 235.5t-57.5 285zM186 713q0 -181 86 -333.5t238.5 -241.5t337.5 -89 q186 0 339 90t239.5 243t86.5 335v4q0 181 -86 333t-238 241t-337 89q-186 0 -339.5 -90t-240 -242.5t-86.5 -334.5v-4zM465 723v4q0 167 113 284t284 117q88 0 150 -22.5t116 -65.5q33 -22 33 -61q0 -32 -21.5 -54t-52.5 -22q-21 0 -49 21q-83 65 -176 65q-103 0 -172 -76 t-69 -184v-4q0 -107 69 -183.5t172 -76.5q102 0 189 74q23 18 45 18q29 0 50 -21.5t21 -50.5q0 -33 -22 -51q-62 -54 -128 -81t-159 -27q-168 0 -280.5 115t-112.5 282z" />
<glyph unicode="&#xab;" horiz-adv-x="1054" d="M119 541q5 35 41 71l317 334q49 49 103 49q41 0 64 -30t15 -72q-6 -38 -38 -70l-267 -280l168 -287q21 -30 15 -68q-7 -43 -42.5 -72.5t-78.5 -29.5q-56 0 -80 43l-203 340q-21 38 -14 72zM633 541q5 33 43 71l317 334q46 49 101 49q42 0 66 -30t16 -72q-6 -38 -41 -70 l-265 -280l166 -287q22 -32 17 -68q-9 -43 -43.5 -72.5t-77.5 -29.5q-56 0 -80 43l-203 340q-23 41 -16 72z" />
<glyph unicode="&#xad;" horiz-adv-x="835" d="M135 705q0 31 21.5 52t52.5 21h381q31 0 51.5 -21t20.5 -52t-20.5 -52.5t-51.5 -21.5h-381q-31 0 -52.5 21.5t-21.5 52.5z" />
<glyph unicode="&#xae;" horiz-adv-x="851" d="M70 1094v2q0 147 104 252.5t252 105.5q150 0 253 -104.5t103 -251.5v-2q0 -147 -104 -253t-252 -106q-150 0 -253 105t-103 252zM111 1094q0 -132 90.5 -225t224.5 -93q132 0 223.5 94t91.5 226v2q0 132 -90.5 224.5t-224.5 92.5q-132 0 -223.5 -93.5t-91.5 -225.5v-2z M299 911v355q0 13 9.5 22.5t23.5 9.5h108q53 0 90 -37.5t37 -91.5q0 -57 -47 -98q18 -13 23 -22q18 -29 18 -64q0 -10 1 -22.5t1 -14.5q16 -3 23 -20q4 -12 -2.5 -24t-20.5 -17q-1 0 -5 -1t-7 -1q-13 0 -25 6q-11 5 -18 20q-12 27 -12 74q-3 16 -9 25t-18 18q-9 6 -33 14 h-69v-131q0 -13 -10.5 -22.5t-24.5 -9.5t-23.5 9.5t-9.5 22.5zM367 1108h73q25 0 43.5 18t18.5 43q0 26 -18.5 44t-43.5 18h-73v-123z" />
<glyph unicode="&#xb0;" horiz-adv-x="921" d="M152 1112v4q0 133 103 231.5t239 98.5q134 0 237 -98.5t103 -231.5v-4q0 -133 -103 -232.5t-237 -99.5q-136 0 -239 99.5t-103 232.5zM299 1112q0 -80 56 -138.5t139 -58.5q82 0 137 58.5t55 138.5v4q0 80 -55 137.5t-137 57.5q-83 0 -139 -57.5t-56 -137.5v-4z" />
<glyph unicode="&#xb4;" d="M412 1251q0 21 16 45l117 181q37 59 98 59q51 0 99.5 -25.5t48.5 -54.5q0 -30 -35 -61l-138 -131q-35 -32 -67.5 -44t-77.5 -12q-27 0 -44 11.5t-17 31.5z" />
<glyph unicode="&#xb8;" d="M348 -238q0 24 17 48l145 210h186l-125 -288q-13 -31 -30.5 -45.5t-48.5 -14.5q-40 0 -92 30t-52 60z" />
<glyph unicode="&#xbb;" horiz-adv-x="1054" d="M147 188q6 38 41 70l265 281l-166 286q-22 32 -17 68q9 43 43.5 72.5t77.5 29.5q56 0 80 -43l203 -340q23 -41 16 -71q-5 -34 -43 -72l-317 -334q-46 -49 -101 -49q-42 0 -66 30t-16 72zM664 188q6 38 38 70l267 281l-168 286q-21 30 -15 68q7 43 42.5 72.5t78.5 29.5 q56 0 80 -43l203 -340q21 -38 14 -71q-5 -36 -41 -72l-317 -334q-49 -49 -103 -49q-41 0 -64 30t-15 72z" />
<glyph unicode="&#xbf;" horiz-adv-x="1093" d="M152 451q27 160 146.5 282t276.5 158l27 141q7 44 43.5 74.5t79.5 30.5t68 -30.5t18 -74.5l-39 -225q0 -1 -1 -2t-1 -2v-4q-8 -43 -44 -74t-79 -31q-101 0 -184.5 -71t-102.5 -172q-17 -100 42 -171t159 -71q67 0 128.5 32.5t103.5 88.5q30 37 72.5 48.5t76.5 -11.5 q35 -21 38.5 -63.5t-24.5 -80.5q-78 -103 -193.5 -164t-238.5 -61t-216.5 60.5t-135.5 165t-20 227.5zM645 1286l6 39q8 44 44.5 75.5t80.5 31.5q43 0 68 -31.5t18 -75.5l-6 -39q-7 -44 -44 -75t-81 -31q-43 0 -68 31t-18 75z" />
<glyph unicode="&#xc0;" horiz-adv-x="1617" d="M134.5 66.5q-11.5 43.5 12.5 87.5l666 1206q18 34 51.5 54t69.5 20t62.5 -19.5t33.5 -54.5l240 -1206q9 -44 -18 -87.5t-74 -60.5q-21 -6 -41 -6q-34 0 -60.5 20.5t-32.5 53.5l-53 264h-499l-148 -264q-19 -34 -51.5 -54t-67.5 -20q-21 0 -39 6q-40 17 -51.5 60.5z M616 563h330l-88 441zM811 1866q0 29 48.5 54.5t98.5 25.5q62 0 99 -60l117 -180q18 -27 18 -45q0 -20 -18 -31.5t-46 -11.5q-46 0 -77.5 11.5t-65.5 43.5l-139 131q-35 31 -35 62z" />
<glyph unicode="&#xc1;" horiz-adv-x="1323" d="M132.5 66.5q-11.5 43.5 12.5 87.5l666 1206q18 34 51.5 54t69.5 20t62.5 -19.5t33.5 -54.5l240 -1206q9 -44 -18 -87.5t-74 -60.5q-21 -6 -41 -6q-34 0 -60.5 20.5t-32.5 53.5l-53 264h-500l-147 -264q-19 -34 -51.5 -54t-67.5 -20q-21 0 -39 6q-40 17 -51.5 60.5z M614 563h330l-88 441zM736 1661q0 21 16 45l117 181q37 59 98 59q51 0 99.5 -25.5t48.5 -54.5q0 -30 -35 -61l-138 -131q-35 -32 -67.5 -44t-77.5 -12q-27 0 -44 11.5t-17 31.5z" />
<glyph unicode="&#xc2;" horiz-adv-x="1617" d="M134.5 66.5q-11.5 43.5 12.5 87.5l666 1206q18 34 51.5 54t69.5 20t62.5 -19.5t33.5 -54.5l240 -1206q9 -44 -18 -87.5t-74 -60.5q-21 -6 -41 -6q-34 0 -60.5 20.5t-32.5 53.5l-53 264h-499l-148 -264q-19 -34 -51.5 -54t-67.5 -20q-21 0 -39 6q-40 17 -51.5 60.5z M616 563h330l-88 441zM698 1659q4 14 39 49l187 170q65 59 137 59h74q41 0 63 -14.5t37 -44.5l84 -170q15 -31 10 -49q-6 -19 -26 -30t-46 -11q-45 0 -74.5 11.5t-60.5 43.5l-78 92l-135 -92q-47 -32 -84.5 -43.5t-83.5 -11.5q-24 0 -36.5 10.5t-6.5 30.5z" />
<glyph unicode="&#xc3;" horiz-adv-x="1617" d="M134.5 66.5q-11.5 43.5 12.5 87.5l666 1206q18 34 51.5 54t69.5 20t62.5 -19.5t33.5 -54.5l240 -1206q9 -44 -18 -87.5t-74 -60.5q-21 -6 -41 -6q-34 0 -60.5 20.5t-32.5 53.5l-53 264h-499l-148 -264q-19 -34 -51.5 -54t-67.5 -20q-21 0 -39 6q-40 17 -51.5 60.5z M616 563h330l-88 441zM674 1671q0 19 8 47q34 94 82.5 140.5t126.5 46.5q61 0 162 -41t133 -41q34 0 54 15t40 50q25 41 68 41q30 0 52.5 -20t22.5 -47q0 -19 -8 -47q-34 -94 -82.5 -140.5t-126.5 -46.5q-61 0 -162 41t-133 41q-34 0 -54 -15t-40 -50q-25 -41 -67 -41 q-31 0 -53.5 20.5t-22.5 46.5z" />
<glyph unicode="&#xc4;" horiz-adv-x="1617" d="M134.5 66.5q-11.5 43.5 12.5 87.5l666 1206q18 34 51.5 54t69.5 20t62.5 -19.5t33.5 -54.5l240 -1206q9 -44 -18 -87.5t-74 -60.5q-21 -6 -41 -6q-34 0 -60.5 20.5t-32.5 53.5l-53 264h-499l-148 -264q-19 -34 -51.5 -54t-67.5 -20q-21 0 -39 6q-40 17 -51.5 60.5z M616 563h330l-88 441zM672 1743l2 14q10 55 57 91t105 36q56 0 86 -36t20 -91l-2 -14q-12 -55 -58 -90t-102 -35q-58 0 -89 35t-19 90zM1079 1743l2 14q10 55 57 91t105 36q56 0 86.5 -36t20.5 -91l-2 -14q-12 -55 -58 -90t-102 -35q-58 0 -89.5 35t-19.5 90z" />
<glyph unicode="&#xc5;" horiz-adv-x="1617" d="M174 66.5q-12 43.5 12 87.5l623 1132q-51 34 -75.5 91t-14.5 122l2 4q19 102 111 177t196 75t170 -75t47 -177l-2 -4q-10 -64 -54.5 -120t-107.5 -91l228 -1134q8 -44 -20 -87.5t-75 -60.5q-15 -6 -40 -6q-34 0 -59.5 19.5t-31.5 52.5l-55 266h-498l-145 -266 q-20 -33 -53.5 -52.5t-67.5 -19.5q-19 0 -37 6q-41 17 -53 60.5zM653 563h332l-88 441zM883 1499q-6 -40 17.5 -68t64.5 -28t74.5 28t39.5 68l2 4q6 40 -17.5 68t-64.5 28t-74.5 -28t-39.5 -68z" />
<glyph unicode="&#xc6;" horiz-adv-x="2140" d="M82 117q7 41 33 71l899 1182q62 88 162 88h985q46 0 73.5 -33t18.5 -79q-7 -47 -46 -80t-85 -33h-664l-65 -373h571q46 0 73 -34t19 -81q-7 -45 -47 -77.5t-86 -32.5h-571l-68 -385h674q46 0 73.5 -33.5t18.5 -79.5q-7 -47 -46 -79.5t-85 -32.5h-799q-54 0 -83.5 36.5 t-20.5 90.5l39 219h-541l-217 -289q-54 -70 -123 -70q-46 0 -72.5 30.5t-19.5 74.5zM682 594h412l112 645h-41z" />
<glyph unicode="&#xc7;" horiz-adv-x="1511" d="M219 717q27 146 108.5 279t197 229t260.5 152.5t294 56.5q259 0 428 -156q32 -29 29.5 -76t-37.5 -84t-82.5 -42t-79.5 24q-122 106 -299 106q-103 0 -202.5 -38t-180.5 -105q-83 -69 -137.5 -157.5t-71.5 -188.5q-37 -200 86 -346q58 -68 144.5 -106t189.5 -38 q182 0 336 107q41 29 87 22.5t69 -43.5q22 -37 8 -83t-57 -74q-224 -156 -482 -156q-149 0 -274.5 56.5t-207.5 152t-117 228.5t-9 280zM600 -238q0 26 16 48l146 210h186l-125 -288q-13 -31 -31 -45.5t-49 -14.5q-40 0 -91.5 30t-51.5 60z" />
<glyph unicode="&#xc8;" horiz-adv-x="1372" d="M223 109l213 1208q8 46 47 79.5t86 33.5h2h2h664q47 0 74.5 -33.5t19.5 -79.5q-9 -47 -48 -81t-85 -34h-555l-68 -377h480q46 0 73.5 -32.5t18.5 -79.5q-7 -47 -46.5 -80t-86.5 -33h-477l-68 -377h555q47 0 74.5 -33.5t19.5 -80.5q-9 -46 -48 -79.5t-85 -33.5h-666h-2 q-47 0 -74.5 33.5t-19.5 79.5zM696 1866q0 29 48.5 54.5t99.5 25.5q61 0 98 -60l117 -180q18 -27 18 -45q0 -20 -17.5 -31.5t-45.5 -11.5q-46 0 -78 11.5t-66 43.5l-139 131q-35 31 -35 62z" />
<glyph unicode="&#xc9;" horiz-adv-x="1372" d="M223 109l213 1208q8 46 47 79.5t86 33.5h2h2h664q47 0 74.5 -33.5t19.5 -79.5q-9 -47 -48 -81t-85 -34h-555l-68 -377h480q46 0 73.5 -32.5t18.5 -79.5q-7 -47 -46.5 -80t-86.5 -33h-477l-68 -377h555q47 0 74.5 -33.5t19.5 -80.5q-9 -46 -48 -79.5t-85 -33.5h-666h-2 q-47 0 -74.5 33.5t-19.5 79.5zM778 1661q0 19 17 45l116 180q37 60 99 60q50 0 98.5 -25.5t48.5 -54.5q0 -30 -35 -62l-137 -131q-35 -32 -67.5 -43.5t-77.5 -11.5q-27 0 -44.5 11.5t-17.5 31.5z" />
<glyph unicode="&#xca;" horiz-adv-x="1372" d="M223 109l213 1208q8 46 47 79.5t86 33.5h2h2h664q47 0 74.5 -33.5t19.5 -79.5q-9 -47 -48 -81t-85 -34h-555l-68 -377h480q46 0 73.5 -32.5t18.5 -79.5q-7 -47 -46.5 -80t-86.5 -33h-477l-68 -377h555q47 0 74.5 -33.5t19.5 -80.5q-9 -46 -48 -79.5t-85 -33.5h-666h-2 q-47 0 -74.5 33.5t-19.5 79.5zM688 1659q4 14 39 49l186 170q65 59 138 59h73q41 0 64 -14.5t37 -44.5l84 -170q15 -31 10 -49q-6 -19 -26 -30t-46 -11q-45 0 -74.5 11.5t-60.5 43.5l-78 92l-135 -92q-47 -32 -84.5 -43.5t-83.5 -11.5q-24 0 -36.5 10.5t-6.5 30.5z" />
<glyph unicode="&#xcb;" horiz-adv-x="1372" d="M223 109l213 1208q8 46 47 79.5t86 33.5h2h2h664q47 0 74.5 -33.5t19.5 -79.5q-9 -47 -48 -81t-85 -34h-555l-68 -377h480q46 0 73.5 -32.5t18.5 -79.5q-7 -47 -46.5 -80t-86.5 -33h-477l-68 -377h555q47 0 74.5 -33.5t19.5 -80.5q-9 -46 -48 -79.5t-85 -33.5h-666h-2 q-47 0 -74.5 33.5t-19.5 79.5zM635 1743l2 14q10 55 57 91t105 36q56 0 86 -36t20 -91l-2 -14q-12 -55 -58 -90t-102 -35q-58 0 -89 35t-19 90zM1042 1743l2 14q10 55 57 91t105 36q56 0 86.5 -36t20.5 -91l-2 -14q-12 -55 -58 -90t-102 -35q-58 0 -89.5 35t-19.5 90z" />
<glyph unicode="&#xcc;" horiz-adv-x="561" d="M41 111l213 1208q9 46 48 79.5t85 33.5q47 0 74.5 -33.5t19.5 -79.5l-213 -1208q-7 -46 -47 -79.5t-86 -33.5q-47 0 -74.5 33.5t-19.5 79.5zM240 1866q0 29 48.5 54.5t98.5 25.5q61 0 98 -60l117 -180q19 -28 19 -45q0 -20 -18 -31.5t-46 -11.5q-45 0 -77 11.5t-66 43.5 l-140 131q-34 31 -34 62z" />
<glyph unicode="&#xcd;" horiz-adv-x="561" d="M238 111l213 1208q9 46 48 79.5t85 33.5q47 0 74.5 -33.5t19.5 -79.5l-213 -1208q-7 -46 -47 -79.5t-86 -33.5q-47 0 -74.5 33.5t-19.5 79.5zM385 1661q0 21 16 45l117 180q37 60 98 60q51 0 99.5 -25.5t48.5 -54.5q0 -30 -35 -62l-137 -131q-35 -32 -67.5 -43.5 t-78.5 -11.5q-27 0 -44 11.5t-17 31.5z" />
<glyph unicode="&#xce;" horiz-adv-x="561" d="M76 111l213 1208q9 46 48 79.5t85 33.5q47 0 74.5 -33.5t19.5 -79.5l-213 -1208q-7 -46 -47 -79.5t-86 -33.5q-47 0 -74.5 33.5t-19.5 79.5zM106 1659q4 14 39 49l187 170q65 59 137 59h74q41 0 63 -14.5t37 -44.5l84 -170q15 -31 10 -49q-6 -20 -25.5 -30.5t-45.5 -10.5 q-45 0 -75 11.5t-61 43.5l-77 92l-136 -92q-47 -32 -84 -43.5t-83 -11.5q-24 0 -37 11t-7 30z" />
<glyph unicode="&#xcf;" horiz-adv-x="561" d="M92 111l213 1208q9 46 48 79.5t85 33.5q47 0 74.5 -33.5t19.5 -79.5l-213 -1208q-7 -46 -47 -79.5t-86 -33.5q-47 0 -74.5 33.5t-19.5 79.5zM166 1743l2 14q10 55 57 91t105 36q56 0 86 -36t20 -91l-2 -14q-12 -55 -58 -90t-102 -35q-58 0 -89 35t-19 90zM573 1743l2 14 q10 55 57 91t105 36q56 0 86.5 -36t20.5 -91l-2 -14q-12 -55 -58 -90t-102 -35q-58 0 -89.5 35t-19.5 90z" />
<glyph unicode="&#xd0;" horiz-adv-x="1662" d="M123 723q6 31 32.5 52.5t57.5 21.5h78l92 524q9 47 48.5 80t86.5 33h242q146 0 268.5 -56.5t201.5 -152.5t112.5 -229t7.5 -279q-26 -145 -106.5 -278t-193.5 -229t-256 -153t-288 -57h-240h-2q-46 0 -73.5 34t-18.5 81l94 534h-88q-31 0 -47 21.5t-8 52.5zM418 227h129 q133 0 257 65.5t209.5 178.5t108.5 246q35 204 -82.5 346.5t-320.5 144.5h-129l-72 -411h76q30 0 45.5 -21.5t9.5 -52.5q-8 -31 -33.5 -52.5t-56.5 -21.5h-67z" />
<glyph unicode="&#xd1;" horiz-adv-x="1617" d="M225 113l211 1202q10 61 66 96q41 28 86 20.5t65 -45.5l504 -925l150 854q9 46 48 79t85 33q47 0 74.5 -33t19.5 -79l-213 -1202q-7 -47 -46.5 -80t-86.5 -33q-53 0 -78 39q0 1 -3.5 5.5t-4.5 8.5l-500 918l-151 -858q-7 -47 -46.5 -80t-87.5 -33q-46 0 -73.5 33 t-18.5 80zM780 1672q0 19 8 47q34 94 82.5 140t126.5 46q61 0 162 -41t133 -41q34 0 54 15t40 51q25 41 68 41q30 0 53 -20.5t23 -47.5q0 -16 -9 -47q-34 -94 -82 -140t-126 -46q-61 0 -162 40.5t-133 40.5q-34 0 -54.5 -15t-40.5 -50q-25 -41 -67 -41q-30 0 -53 20.5 t-23 47.5z" />
<glyph unicode="&#xd2;" horiz-adv-x="1740" d="M184 715q26 144 101.5 275t185.5 229q111 100 246.5 156.5t275.5 56.5q139 0 255 -56.5t192 -156.5q75 -98 103.5 -229t2.5 -275q-24 -145 -98.5 -275t-185.5 -229q-111 -100 -247 -156.5t-276 -56.5t-255.5 56.5t-190.5 156.5q-76 99 -105.5 229t-3.5 275zM412 715 q-37 -204 73 -350q107 -139 295 -142q186 3 344 142q160 147 197 350q37 204 -74 348q-52 67 -128 104t-167 37q-187 0 -344 -141q-158 -142 -196 -348zM1112 1866q0 29 48.5 54.5t98.5 25.5q62 0 99 -59l116 -181q19 -29 19 -45q0 -20 -18 -31.5t-46 -11.5q-45 0 -77 12 t-66 44l-139 131q-35 31 -35 61z" />
<glyph unicode="&#xd3;" horiz-adv-x="1740" d="M184 715q26 144 101.5 275t185.5 229q111 100 246.5 156.5t275.5 56.5q139 0 255 -56.5t192 -156.5q75 -98 103.5 -229t2.5 -275q-24 -145 -98.5 -275t-185.5 -229q-111 -100 -247 -156.5t-276 -56.5t-255.5 56.5t-190.5 156.5q-76 99 -105.5 229t-3.5 275zM412 715 q-37 -204 73 -350q107 -139 295 -142q186 3 344 142q160 147 197 350q37 204 -74 348q-52 67 -128 104t-167 37q-187 0 -344 -141q-158 -142 -196 -348zM772 1661q0 21 16 45l117 180q37 60 99 60q50 0 98.5 -25.5t48.5 -54.5q0 -30 -35 -62l-137 -131q-35 -32 -67.5 -43.5 t-77.5 -11.5q-27 0 -44.5 11.5t-17.5 31.5z" />
<glyph unicode="&#xd4;" horiz-adv-x="1740" d="M184 715q26 144 101.5 275t185.5 229q111 100 246.5 156.5t275.5 56.5q139 0 255 -56.5t192 -156.5q75 -98 103.5 -229t2.5 -275q-24 -145 -98.5 -275t-185.5 -229q-111 -100 -247 -156.5t-276 -56.5t-255.5 56.5t-190.5 156.5q-76 99 -105.5 229t-3.5 275zM412 715 q-37 -204 73 -350q107 -139 295 -142q186 3 344 142q160 147 197 350q37 204 -74 348q-52 67 -128 104t-167 37q-187 0 -344 -141q-158 -142 -196 -348zM850 1659q4 14 39 49l186 170q66 60 137 60h74q72 0 101 -60l84 -170q15 -31 10 -49q-6 -19 -26 -30t-46 -11 q-45 0 -74.5 11.5t-60.5 44.5l-78 92l-135 -92q-82 -56 -168 -56q-24 0 -36.5 10.5t-6.5 30.5z" />
<glyph unicode="&#xd5;" horiz-adv-x="1740" d="M184 715q26 144 101.5 275t185.5 229q111 100 246.5 156.5t275.5 56.5q139 0 255 -56.5t192 -156.5q75 -98 103.5 -229t2.5 -275q-24 -145 -98.5 -275t-185.5 -229q-111 -100 -247 -156.5t-276 -56.5t-255.5 56.5t-190.5 156.5q-76 99 -105.5 229t-3.5 275zM412 715 q-37 -204 73 -350q107 -139 295 -142q186 3 344 142q160 147 197 350q37 204 -74 348q-52 67 -128 104t-167 37q-187 0 -344 -141q-158 -142 -196 -348zM756 1671q0 19 8 47q34 94 82.5 140.5t126.5 46.5q61 0 162 -41t133 -41q34 0 54 15t40 50q25 41 68 41q30 0 52.5 -20 t22.5 -47q0 -19 -8 -47q-34 -94 -82.5 -140.5t-126.5 -46.5q-61 0 -162 41t-133 41q-34 0 -54 -15t-40 -50q-25 -41 -68 -41q-30 0 -52.5 20t-22.5 47z" />
<glyph unicode="&#xd6;" horiz-adv-x="1740" d="M184 715q26 144 101.5 275t185.5 229q111 100 246.5 156.5t275.5 56.5q139 0 255 -56.5t192 -156.5q75 -98 103.5 -229t2.5 -275q-24 -145 -98.5 -275t-185.5 -229q-111 -100 -247 -156.5t-276 -56.5t-255.5 56.5t-190.5 156.5q-76 99 -105.5 229t-3.5 275zM412 715 q-37 -204 73 -350q107 -139 295 -142q186 3 344 142q160 147 197 350q37 204 -74 348q-52 67 -128 104t-167 37q-187 0 -344 -141q-158 -142 -196 -348zM823 1743l2 15q10 55 57 91t105 36q56 0 86.5 -36t20.5 -91l-2 -15q-12 -55 -58 -90t-102 -35q-58 0 -89.5 35t-19.5 90 zM1231 1743l2 15q10 55 57 91t105 36q56 0 86 -36t20 -91l-2 -15q-12 -55 -58 -90t-102 -35q-58 0 -89 35t-19 90z" />
<glyph unicode="&#xd7;" horiz-adv-x="1269" d="M213 375q6 49 47 82l301 262l-235 262q-28 40 -21 82q6 46 42.5 78.5t82.5 32.5q48 0 76 -35l227 -269l299 269q38 35 84 35t73 -31.5t21 -77.5q-6 -47 -47 -80l-301 -262l234 -262q30 -37 22 -82q-6 -46 -42.5 -78.5t-82.5 -32.5q-45 0 -78 33l-225 270l-299 -268 q-38 -35 -86 -35q-44 0 -71 31.5t-21 75.5z" />
<glyph unicode="&#xd9;" horiz-adv-x="1556" d="M248 592l127 729q9 47 48.5 80t86.5 33q46 0 73.5 -33t18.5 -80l-129 -729q-26 -151 62 -258t239 -107q152 0 278 107t152 258l129 729q7 47 47 80t86 33q47 0 75 -33t20 -80l-129 -729q-28 -160 -131 -296.5t-254 -216t-312 -79.5q-121 0 -222 47t-166 126.5t-92.5 189 t-6.5 229.5zM805 1866q0 29 48.5 54.5t98.5 25.5q62 0 99 -60l116 -180q19 -29 19 -45q0 -20 -18 -31.5t-46 -11.5q-46 0 -77.5 11.5t-65.5 43.5l-139 131q-35 31 -35 62z" />
<glyph unicode="&#xda;" horiz-adv-x="1556" d="M248 592l127 729q9 47 48.5 80t86.5 33q46 0 73.5 -33t18.5 -80l-129 -729q-26 -151 62 -258t239 -107q152 0 278 107t152 258l129 729q7 47 47 80t86 33q47 0 75 -33t20 -80l-129 -729q-28 -160 -131 -296.5t-254 -216t-312 -79.5q-121 0 -222 47t-166 126.5t-92.5 189 t-6.5 229.5zM897 1661q0 21 16 45l117 180q37 60 98 60q51 0 99.5 -25.5t48.5 -54.5q0 -30 -35 -62l-137 -131q-35 -32 -67.5 -43.5t-78.5 -11.5q-27 0 -44 11.5t-17 31.5z" />
<glyph unicode="&#xdb;" horiz-adv-x="1556" d="M248 592l127 729q9 47 48.5 80t86.5 33q46 0 73.5 -33t18.5 -80l-129 -729q-26 -151 62 -258t239 -107q152 0 278 107t152 258l129 729q7 47 47 80t86 33q47 0 75 -33t20 -80l-129 -729q-28 -160 -131 -296.5t-254 -216t-312 -79.5q-121 0 -222 47t-166 126.5t-92.5 189 t-6.5 229.5zM795 1659q4 14 39 49l186 170q65 59 137 59h74q41 0 63 -14.5t37 -44.5l84 -170q15 -31 10 -49q-6 -20 -25.5 -30.5t-45.5 -10.5q-45 0 -74.5 11.5t-60.5 43.5l-78 92l-135 -92q-47 -32 -84.5 -43.5t-83.5 -11.5q-24 0 -36.5 10.5t-6.5 30.5z" />
<glyph unicode="&#xdc;" horiz-adv-x="1556" d="M248 592l127 729q9 47 48.5 80t86.5 33q46 0 73.5 -33t18.5 -80l-129 -729q-26 -151 62 -258t239 -107q152 0 278 107t152 258l129 729q7 47 47 80t86 33q47 0 75 -33t20 -80l-129 -729q-28 -160 -131 -296.5t-254 -216t-312 -79.5q-121 0 -222 47t-166 126.5t-92.5 189 t-6.5 229.5zM727 1743l2 14q10 55 57 91t105 36q56 0 86 -36t20 -91l-2 -14q-12 -55 -57.5 -90t-101.5 -35q-58 0 -89.5 35t-19.5 90zM1135 1743l2 14q10 55 56.5 91t104.5 36q56 0 86.5 -36t20.5 -91l-2 -14q-12 -55 -58 -90t-102 -35q-58 0 -89 35t-19 90z" />
<glyph unicode="&#xdd;" horiz-adv-x="1466" d="M133 1335.5q15 45.5 57 73.5q43 28 88.5 20.5t67.5 -45.5l268 -483l439 483q34 38 81.5 45.5t79.5 -20.5q34 -28 33 -74t-35 -84l-526 -579l-98 -561q-7 -46 -47 -79.5t-86 -33.5q-47 0 -75 33.5t-20 79.5l101 561l-322 579q-21 39 -6 84.5zM705 1661q0 21 16 45l117 180 q37 60 98 60q50 0 98.5 -25.5t48.5 -54.5q0 -31 -34 -62l-138 -131q-35 -32 -67.5 -43.5t-77.5 -11.5q-27 0 -44 11.5t-17 31.5z" />
<glyph unicode="&#xdf;" horiz-adv-x="1269" d="M203 78l162 917q38 222 192 352t379 130q204 0 304.5 -109.5t70.5 -275.5v-5q-40 -223 -289 -350q60 -21 107.5 -51.5t85 -73.5t52 -104.5t1.5 -134.5v-4q-17 -96 -70 -174.5t-127.5 -128t-161 -76.5t-174.5 -29q-52 0 -77 28.5t-17 73.5q6 37 34 63.5t70 35.5 q245 38 277 213v4q27 157 -197 217q-87 27 -71 109q11 68 71 102q208 105 234 258v4q17 89 -30.5 143t-141.5 54q-102 0 -178.5 -71.5t-96.5 -190.5l-163 -926q-9 -51 -51 -86t-95 -35q-51 0 -80 35t-20 86z" />
<glyph unicode="&#xe0;" horiz-adv-x="1175" d="M156 512q34 207 200 360q79 70 177 110t198 40q146 0 256 -86q14 37 48 61.5t73 24.5q46 0 71.5 -31.5t16.5 -77.5l-139 -800q-9 -46 -46 -78.5t-81 -32.5q-40 0 -65 25t-27 63q-143 -88 -287 -88q-99 0 -182.5 40.5t-137.5 111.5q-115 155 -75 358zM371 512 q-21 -124 45 -209q62 -84 174 -84q111 0 201 84q97 84 118 209q23 123 -45 211q-64 84 -172 84q-106 0 -203 -84q-97 -88 -118 -211zM698 1456q0 29 48.5 54.5t99.5 25.5q61 0 98 -59l117 -181q18 -27 18 -45q0 -20 -17.5 -31.5t-45.5 -11.5q-45 0 -77.5 12t-66.5 44 l-139 131q-35 31 -35 61z" />
<glyph unicode="&#xe1;" horiz-adv-x="1175" d="M156 512q34 207 200 360q79 70 177 110t198 40q146 0 256 -86q14 37 48 61.5t73 24.5q46 0 71.5 -31.5t16.5 -77.5l-139 -800q-9 -46 -46 -78.5t-81 -32.5q-40 0 -65 25t-27 63q-143 -88 -287 -88q-99 0 -182.5 40.5t-137.5 111.5q-115 155 -75 358zM371 512 q-21 -124 45 -209q62 -84 174 -84q111 0 201 84q97 84 118 209q23 123 -45 211q-64 84 -172 84q-106 0 -203 -84q-97 -88 -118 -211zM713 1251q0 21 16 45l117 181q37 59 98 59q51 0 99.5 -25.5t48.5 -54.5q0 -30 -35 -61l-137 -131q-35 -32 -68 -44t-78 -12q-27 0 -44 11.5 t-17 31.5z" />
<glyph unicode="&#xe2;" horiz-adv-x="1175" d="M156 512q34 207 200 360q79 70 177 110t198 40q146 0 256 -86q14 37 48 61.5t73 24.5q46 0 71.5 -31.5t16.5 -77.5l-139 -800q-9 -46 -46 -78.5t-81 -32.5q-40 0 -65 25t-27 63q-143 -88 -287 -88q-99 0 -182.5 40.5t-137.5 111.5q-115 155 -75 358zM371 512 q-21 -124 45 -209q62 -84 174 -84q111 0 201 84q97 84 118 209q23 123 -45 211q-64 84 -172 84q-106 0 -203 -84q-97 -88 -118 -211zM670 1249q4 14 39 49l186 170q66 60 137 60h74q40 0 62.5 -15t37.5 -45l84 -170q15 -31 10 -49q-6 -20 -25.5 -30.5t-45.5 -10.5 q-45 0 -74.5 11.5t-60.5 44.5l-78 92l-135 -92q-82 -56 -168 -56q-24 0 -36.5 10.5t-6.5 30.5z" />
<glyph unicode="&#xe3;" horiz-adv-x="1175" d="M156 512q34 207 200 360q79 70 177 110t198 40q146 0 256 -86q14 37 48 61.5t73 24.5q46 0 71.5 -31.5t16.5 -77.5l-139 -800q-9 -46 -46 -78.5t-81 -32.5q-40 0 -65 25t-27 63q-143 -88 -287 -88q-99 0 -182.5 40.5t-137.5 111.5q-115 155 -75 358zM371 512 q-21 -124 45 -209q62 -84 174 -84q111 0 201 84q97 84 118 209q23 123 -45 211q-64 84 -172 84q-106 0 -203 -84q-97 -88 -118 -211zM594 1262q0 19 8 47q34 94 82.5 140t126.5 46q61 0 162 -41t133 -41q34 0 54 15t40 51q25 41 68 41q30 0 52.5 -20.5t22.5 -47.5 q0 -19 -8 -47q-34 -94 -82.5 -140t-126.5 -46q-61 0 -162 40.5t-133 40.5q-34 0 -54 -15t-40 -50q-25 -41 -67 -41q-30 0 -53 20.5t-23 47.5z" />
<glyph unicode="&#xe4;" horiz-adv-x="1175" d="M156 512q34 207 200 360q79 70 177 110t198 40q146 0 256 -86q14 37 48 61.5t73 24.5q46 0 71.5 -31.5t16.5 -77.5l-139 -800q-9 -46 -46 -78.5t-81 -32.5q-40 0 -65 25t-27 63q-143 -88 -287 -88q-99 0 -182.5 40.5t-137.5 111.5q-115 155 -75 358zM371 512 q-21 -124 45 -209q62 -84 174 -84q111 0 201 84q97 84 118 209q23 123 -45 211q-64 84 -172 84q-106 0 -203 -84q-97 -88 -118 -211zM698 1333l2 15q10 55 57 91t105 36q56 0 86.5 -36t20.5 -91l-2 -15q-12 -55 -58 -90t-102 -35q-58 0 -89.5 35t-19.5 90zM1106 1333l2 15 q10 55 57 91t105 36q56 0 86 -36t20 -91l-2 -15q-12 -55 -58 -90t-102 -35q-58 0 -89 35t-19 90z" />
<glyph unicode="&#xe5;" horiz-adv-x="1175" d="M131 512q34 206 201 360q79 70 177 110t198 40q146 0 256 -86q14 37 47.5 61.5t72.5 24.5q46 0 71.5 -31.5t16.5 -77.5l-139 -800q-9 -46 -46 -78.5t-81 -32.5q-40 0 -65 25t-27 63q-143 -88 -287 -88q-99 0 -182 40.5t-137 111.5q-54 73 -75 165.5t-1 192.5zM346 512 q-21 -124 45 -209q62 -84 174 -84q111 0 201 84q98 85 119 209q23 123 -45 211q-64 84 -172 84q-106 0 -203 -84q-99 -89 -119 -211zM606 1419v4q19 102 111 177t196 75t170 -75t47 -177v-4q-19 -101 -111.5 -176.5t-195.5 -75.5t-169.5 75.5t-47.5 176.5zM770 1419 q-8 -40 15.5 -68t64.5 -28t75 28t42 68v4q8 40 -16.5 68.5t-65.5 28.5t-74 -28.5t-41 -68.5v-4z" />
<glyph unicode="&#xe6;" horiz-adv-x="1953" d="M131 524q38 216 207 369q81 72 181 113t202 41q149 0 262 -89q14 38 49 63.5t76 25.5q46 0 72.5 -32.5t17.5 -78.5l-2 -12q162 120 348 120q205 0 323.5 -136.5t92.5 -346.5q0 -8 -2 -12q0 -11 -4 -19q-12 -37 -47 -60.5t-78 -23.5h-666q0 -83 45 -137q26 -37 78.5 -63 t106.5 -31q64 -5 131.5 15t117.5 65q22 21 45.5 29.5t40 6.5t33 -10t22 -13t9.5 -9q26 -29 23.5 -68.5t-31.5 -68.5q-93 -89 -191.5 -125.5t-238.5 -36.5q-182 0 -299 117v-2q-9 -46 -47.5 -79.5t-83.5 -33.5q-41 0 -67 25.5t-28 64.5q-144 -90 -292 -90q-102 0 -187.5 42 t-140.5 114q-55 74 -76.5 168.5t-1.5 197.5zM352 524q-21 -127 45 -213q64 -86 178 -86q115 0 207 86q100 87 121 213q24 126 -45 215q-67 86 -176 86q-110 0 -209 -86q-101 -90 -121 -215zM1184 625h592q-4 74 -74.5 142.5t-194.5 78.5q-64 -3 -121 -25.5t-96.5 -56 t-66 -69t-39.5 -70.5z" />
<glyph unicode="&#xe7;" horiz-adv-x="1169" d="M170 522q26 143 119.5 263.5t228.5 189.5t279 69q186 0 311 -112q31 -29 29 -75.5t-37 -82.5q-34 -35 -81 -40.5t-79 22.5q-71 65 -182 65q-130 0 -236.5 -88t-128.5 -211q-22 -124 53 -212.5t205 -88.5q111 0 207 68q41 28 85.5 22t66.5 -43t8 -82t-55 -73 q-160 -113 -351 -113q-108 0 -199.5 41t-151 110.5t-85 166.5t-6.5 204zM399 -238q0 24 17 48l145 210h186l-125 -288q-13 -31 -30.5 -45.5t-48.5 -14.5q-40 0 -92 30t-52 60z" />
<glyph unicode="&#xe8;" horiz-adv-x="1196" d="M176 512q25 138 111.5 255.5t213.5 187t265 69.5q202 0 318 -134.5t90 -340.5q0 -7 -3 -10q0 -11 -4 -19q-10 -36 -44 -59t-76 -23h-654q0 -81 45 -135q24 -36 75.5 -61.5t104.5 -30.5q62 -5 128.5 14.5t115.5 63.5q22 21 45 29t39.5 6t32.5 -10t21.5 -12.5t9.5 -8.5 q26 -29 23 -67.5t-32 -67.5q-92 -86 -187.5 -122t-233.5 -36q-138 1 -240 70.5t-145.5 186.5t-18.5 255zM414 612h579q-4 72 -72.5 139.5t-189.5 77.5q-63 -3 -118.5 -25t-94 -55.5t-65 -68t-39.5 -68.5zM741 1456q0 29 48.5 54.5t99.5 25.5q61 0 98 -59l117 -181 q18 -27 18 -45q0 -20 -17.5 -31.5t-45.5 -11.5q-45 0 -77.5 12t-66.5 44l-139 131q-35 31 -35 61z" />
<glyph unicode="&#xe9;" horiz-adv-x="1196" d="M176 512q25 138 111.5 255.5t213.5 187t265 69.5q202 0 318 -134.5t90 -340.5q0 -7 -3 -10q0 -11 -4 -19q-10 -36 -44 -59t-76 -23h-654q0 -81 45 -135q24 -36 75.5 -61.5t104.5 -30.5q62 -5 128.5 14.5t115.5 63.5q22 21 45 29t39.5 6t32.5 -10t21.5 -12.5t9.5 -8.5 q26 -29 23 -67.5t-32 -67.5q-92 -86 -187.5 -122t-233.5 -36q-138 1 -240 70.5t-145.5 186.5t-18.5 255zM414 612h579q-4 72 -72.5 139.5t-189.5 77.5q-63 -3 -118.5 -25t-94 -55.5t-65 -68t-39.5 -68.5zM659 1251q0 19 17 45l117 181q37 59 98 59q50 0 98.5 -25.5 t48.5 -54.5q0 -30 -34 -61l-138 -131q-35 -32 -67.5 -44t-77.5 -12q-27 0 -44.5 11.5t-17.5 31.5z" />
<glyph unicode="&#xea;" horiz-adv-x="1196" d="M176 512q25 138 111.5 255.5t213.5 187t265 69.5q202 0 318 -134.5t90 -340.5q0 -7 -3 -10q0 -11 -4 -19q-10 -36 -44 -59t-76 -23h-654q0 -81 45 -135q24 -36 75.5 -61.5t104.5 -30.5q62 -5 128.5 14.5t115.5 63.5q22 21 45 29t39.5 6t32.5 -10t21.5 -12.5t9.5 -8.5 q26 -29 23 -67.5t-32 -67.5q-92 -86 -187.5 -122t-233.5 -36q-138 1 -240 70.5t-145.5 186.5t-18.5 255zM414 612h579q-4 72 -72.5 139.5t-189.5 77.5q-63 -3 -118.5 -25t-94 -55.5t-65 -68t-39.5 -68.5zM571 1249q4 14 39 49l187 170q66 60 137 60h74q40 0 62.5 -15 t37.5 -45l84 -170q15 -31 10 -49q-6 -19 -26 -30t-46 -11q-45 0 -74.5 11.5t-60.5 44.5l-77 92l-136 -92q-82 -56 -168 -56q-24 0 -36.5 10.5t-6.5 30.5z" />
<glyph unicode="&#xeb;" horiz-adv-x="1196" d="M176 512q25 138 111.5 255.5t213.5 187t265 69.5q202 0 318 -134.5t90 -340.5q0 -7 -3 -10q0 -11 -4 -19q-10 -36 -44 -59t-76 -23h-654q0 -81 45 -135q24 -36 75.5 -61.5t104.5 -30.5q62 -5 128.5 14.5t115.5 63.5q22 21 45 29t39.5 6t32.5 -10t21.5 -12.5t9.5 -8.5 q26 -29 23 -67.5t-32 -67.5q-92 -86 -187.5 -122t-233.5 -36q-138 1 -240 70.5t-145.5 186.5t-18.5 255zM414 612h579q-4 72 -72.5 139.5t-189.5 77.5q-63 -3 -118.5 -25t-94 -55.5t-65 -68t-39.5 -68.5zM586 1333l2 15q10 55 57 91t105 36q56 0 86 -36t20 -91l-2 -15 q-12 -55 -58 -90t-102 -35q-58 0 -89 35t-19 90zM993 1333l2 15q10 55 57 91t105 36q56 0 86.5 -36t20.5 -91l-2 -15q-12 -55 -58 -90t-102 -35q-58 0 -89.5 35t-19.5 90z" />
<glyph unicode="&#xec;" horiz-adv-x="509" d="M14 111l150 839q8 46 47 79.5t86 33.5q46 0 73.5 -33.5t18.5 -79.5l-147 -839q-8 -46 -47 -79.5t-86 -33.5t-75 33.5t-20 79.5zM96 1456q0 29 48.5 54.5t99.5 25.5q61 0 98 -59l117 -181q18 -27 18 -45q0 -20 -17.5 -31.5t-45.5 -11.5q-45 0 -77.5 12t-66.5 44l-139 131 q-35 31 -35 61z" />
<glyph unicode="&#xed;" horiz-adv-x="509" d="M215 111l150 839q8 46 47 79.5t86 33.5q46 0 73.5 -33.5t18.5 -79.5l-148 -839q-8 -46 -47 -79.5t-86 -33.5t-74.5 33.5t-19.5 79.5zM371 1251q0 21 16 45l117 181q37 59 98 59q51 0 99.5 -25.5t48.5 -54.5q0 -30 -35 -61l-137 -131q-35 -32 -68 -44t-78 -12 q-27 0 -44 11.5t-17 31.5z" />
<glyph unicode="&#xee;" horiz-adv-x="509" d="M41 111l149 839q8 46 47.5 79.5t86.5 33.5q46 0 73.5 -33.5t18.5 -79.5l-148 -839q-8 -46 -47 -79.5t-86 -33.5t-74.5 33.5t-19.5 79.5zM88 1249q4 14 39 49l186 170q66 60 138 60h73q72 0 101 -60l84 -170q15 -31 10 -49q-6 -19 -26 -30t-46 -11q-45 0 -74.5 11.5 t-60.5 44.5l-78 92l-135 -92q-82 -56 -168 -56q-24 0 -36.5 10.5t-6.5 30.5z" />
<glyph unicode="&#xef;" horiz-adv-x="509" d="M25 111l149 839q8 46 47 79.5t86 33.5q46 0 73.5 -33.5t18.5 -79.5l-147 -839q-8 -46 -47 -79.5t-86 -33.5t-74.5 33.5t-19.5 79.5zM68 1333l2 15q10 55 56.5 91t104.5 36q56 0 86.5 -36t20.5 -91l-2 -15q-12 -55 -58 -90t-102 -35q-58 0 -89 35t-19 90zM475 1333l2 15 q10 55 57 91t105 36q56 0 86 -36t20 -91l-2 -15q-12 -55 -57.5 -90t-101.5 -35q-58 0 -89.5 35t-19.5 90z" />
<glyph unicode="&#xf0;" horiz-adv-x="1286" d="M166 510q22 142 102 253t198 171.5t251 60.5q83 0 144 -20.5t126 -63.5l-166 293l-239 -98q-15 -6 -35 -6q-32 0 -52 23t-14 55q6 52 66 73l198 82q-13 26 -10 66q8 46 46 79t85 33q60 0 90 -55l17 -33l190 78q28 8 37 8q32 0 51.5 -23.5t14.5 -55.5q-9 -53 -66 -74 l-158 -64l144 -262q74 -136 97.5 -251t2.5 -249q-17 -112 -72 -213t-138 -177t-198.5 -120.5t-244.5 -44.5q-155 0 -271 72t-167.5 194.5t-28.5 268.5zM408 504q-21 -130 55 -224t213 -94q139 0 240 92.5t122 227.5q21 130 -55.5 218.5t-216.5 88.5q-139 0 -237.5 -87.5 t-120.5 -221.5z" />
<glyph unicode="&#xf1;" horiz-adv-x="1255" d="M201 113l86 483l55 319q9 44 47 76.5t82 32.5q32 0 55.5 -17t30.5 -46q111 63 231 63q179 0 282 -125t71 -303l-86 -483q-6 -45 -43 -78t-82 -33t-71.5 32.5t-18.5 78.5l86 483q15 88 -35.5 149.5t-138.5 61.5t-160.5 -61.5t-85.5 -149.5l-88 -483q-6 -45 -44 -78 t-83 -33q-44 0 -70.5 32.5t-19.5 78.5zM467 1262q0 19 8 47q34 94 82.5 140t126.5 46q61 0 162 -41t133 -41q34 0 54 15t40 51q25 41 68 41q30 0 53 -20.5t23 -47.5q0 -16 -9 -47q-34 -94 -82 -140t-126 -46q-61 0 -162 40.5t-133 40.5q-34 0 -54.5 -15t-40.5 -50 q-25 -41 -67 -41q-30 0 -53 20.5t-23 47.5z" />
<glyph unicode="&#xf2;" horiz-adv-x="1310" d="M143 510q37 207 203 360q81 71 179 112.5t198 41.5t183 -41t141 -113q53 -72 73 -164.5t2 -195.5q-38 -213 -204 -360q-78 -72 -176 -113t-199 -41q-100 0 -183.5 41t-140.5 113q-113 149 -76 360zM360 510q-21 -127 46 -211q67 -86 174 -86t206 86q95 85 119 211 q22 127 -47 209q-61 86 -172 86q-112 0 -207 -86q-95 -85 -119 -209zM659 1456q0 29 48.5 54.5t99.5 25.5q61 0 98 -59l117 -181q18 -27 18 -45q0 -20 -17.5 -31.5t-45.5 -11.5q-45 0 -77 12t-66 44l-140 131q-35 31 -35 61z" />
<glyph unicode="&#xf3;" horiz-adv-x="1310" d="M143 510q37 207 203 360q81 71 179 112.5t198 41.5t183 -41t141 -113q53 -72 73 -164.5t2 -195.5q-38 -213 -204 -360q-78 -72 -176 -113t-199 -41q-100 0 -183.5 41t-140.5 113q-113 149 -76 360zM360 510q-21 -127 46 -211q67 -86 174 -86t206 86q95 85 119 211 q22 127 -47 209q-61 86 -172 86q-112 0 -207 -86q-95 -85 -119 -209zM496 1251q0 21 16 45l117 181q37 59 98 59q50 0 98.5 -25.5t48.5 -54.5q0 -30 -34 -61l-138 -131q-35 -32 -67.5 -44t-77.5 -12q-27 0 -44 11.5t-17 31.5z" />
<glyph unicode="&#xf4;" horiz-adv-x="1310" d="M143 510q37 207 203 360q81 71 179 112.5t198 41.5t183 -41t141 -113q53 -72 73 -164.5t2 -195.5q-38 -213 -204 -360q-78 -72 -176 -113t-199 -41q-100 0 -183.5 41t-140.5 113q-113 149 -76 360zM360 510q-21 -127 46 -211q67 -86 174 -86t206 86q95 85 119 211 q22 127 -47 209q-61 86 -172 86q-112 0 -207 -86q-95 -85 -119 -209zM559 1249q4 14 39 49l186 170q66 60 138 60h73q72 0 101 -60l84 -170q15 -31 10 -49q-6 -19 -26 -30t-46 -11q-45 0 -74.5 11.5t-60.5 44.5l-78 92l-135 -92q-82 -56 -168 -56q-24 0 -36.5 10.5 t-6.5 30.5z" />
<glyph unicode="&#xf5;" horiz-adv-x="1310" d="M143 510q37 207 203 360q81 71 179 112.5t198 41.5t183 -41t141 -113q53 -72 73 -164.5t2 -195.5q-38 -213 -204 -360q-78 -72 -176 -113t-199 -41q-100 0 -183.5 41t-140.5 113q-113 149 -76 360zM360 510q-21 -127 46 -211q67 -86 174 -86t206 86q95 85 119 211 q22 127 -47 209q-61 86 -172 86q-112 0 -207 -86q-95 -85 -119 -209zM481 1262q0 19 8 47q34 94 82.5 140t126.5 46q61 0 162 -41t133 -41q34 0 54 15t40 51q25 41 68 41q30 0 53 -20.5t23 -47.5q0 -19 -8 -47q-34 -94 -82.5 -140t-126.5 -46q-61 0 -162 40.5t-133 40.5 q-34 0 -54 -15t-40 -50q-25 -41 -68 -41q-30 0 -53 20.5t-23 47.5z" />
<glyph unicode="&#xf6;" horiz-adv-x="1310" d="M143 510q37 207 203 360q81 71 179 112.5t198 41.5t183 -41t141 -113q53 -72 73 -164.5t2 -195.5q-38 -213 -204 -360q-78 -72 -176 -113t-199 -41q-100 0 -183.5 41t-140.5 113q-113 149 -76 360zM360 510q-21 -127 46 -211q67 -86 174 -86t206 86q95 85 119 211 q22 127 -47 209q-61 86 -172 86q-112 0 -207 -86q-95 -85 -119 -209zM520 1333l2 15q10 55 57 91t105 36q56 0 86.5 -36t20.5 -91l-3 -15q-12 -55 -57.5 -90t-101.5 -35q-58 0 -89.5 35t-19.5 90zM928 1333l2 15q10 55 57 91t105 36q56 0 86 -36t20 -91l-2 -15 q-12 -55 -58 -90t-102 -35q-58 0 -89 35t-19 90z" />
<glyph unicode="&#xf7;" horiz-adv-x="1269" d="M141 721q6 43 41.5 74.5t79.5 31.5h828q44 0 71 -31.5t21 -74.5q-8 -43 -43.5 -75t-79.5 -32h-828q-44 0 -71 32t-19 75zM455 289l2 10q9 57 56 97t105 40q59 0 94.5 -40t26.5 -97l-2 -10q-7 -57 -53.5 -96t-105.5 -39t-94.5 39t-28.5 96zM582 1143l2 10q8 56 54.5 95.5 t104.5 39.5t94.5 -39.5t28.5 -95.5l-2 -10q-9 -57 -56.5 -97t-105.5 -40q-59 0 -94 40t-26 97z" />
<glyph unicode="&#xf9;" horiz-adv-x="1255" d="M213 430l84 485q9 46 46 77.5t81 31.5q46 0 72 -31.5t18 -77.5l-86 -485q-15 -86 36.5 -147.5t137.5 -61.5q88 0 160.5 61.5t87.5 147.5l86 485q7 45 44.5 77t82.5 32q46 0 71.5 -31.5t16.5 -77.5l-84 -485q-31 -177 -178 -302.5t-324 -125.5q-178 0 -281 125.5 t-71 302.5zM520 1456q0 29 48.5 54.5t98.5 25.5q62 0 99 -59l116 -181q19 -28 19 -45q0 -20 -18 -31.5t-46 -11.5q-45 0 -77 12t-66 44l-139 131q-35 31 -35 61z" />
<glyph unicode="&#xfa;" horiz-adv-x="1255" d="M213 430l84 485q9 46 46 77.5t81 31.5q46 0 72 -31.5t18 -77.5l-86 -485q-15 -86 36.5 -147.5t137.5 -61.5q88 0 160.5 61.5t87.5 147.5l86 485q7 45 44.5 77t82.5 32q46 0 71.5 -31.5t16.5 -77.5l-84 -485q-31 -177 -178 -302.5t-324 -125.5q-178 0 -281 125.5 t-71 302.5zM586 1251q0 21 16 45l117 181q37 59 98 59q51 0 99.5 -25.5t48.5 -54.5q0 -30 -35 -61l-137 -131q-35 -32 -68 -44t-78 -12q-27 0 -44 11.5t-17 31.5z" />
<glyph unicode="&#xfb;" horiz-adv-x="1255" d="M213 430l84 485q9 46 46 77.5t81 31.5q46 0 72 -31.5t18 -77.5l-86 -485q-15 -86 36.5 -147.5t137.5 -61.5q88 0 160.5 61.5t87.5 147.5l86 485q7 45 44.5 77t82.5 32q46 0 71.5 -31.5t16.5 -77.5l-84 -485q-31 -177 -178 -302.5t-324 -125.5q-178 0 -281 125.5 t-71 302.5zM522 1249q4 14 39 49l186 170q66 60 137 60h74q72 0 101 -60l84 -170q15 -31 10 -49q-6 -19 -26 -30t-46 -11q-45 0 -74.5 11.5t-60.5 44.5l-78 92l-135 -92q-82 -56 -168 -56q-24 0 -36.5 10.5t-6.5 30.5z" />
<glyph unicode="&#xfc;" horiz-adv-x="1255" d="M213 430l84 485q9 46 46 77.5t81 31.5q46 0 72 -31.5t18 -77.5l-86 -485q-15 -86 36.5 -147.5t137.5 -61.5q88 0 160.5 61.5t87.5 147.5l86 485q7 45 44.5 77t82.5 32q46 0 71.5 -31.5t16.5 -77.5l-84 -485q-31 -177 -178 -302.5t-324 -125.5q-178 0 -281 125.5 t-71 302.5zM463 1333l2 15q10 55 57 91t105 36q56 0 86 -36t20 -91l-2 -15q-12 -55 -58 -90t-102 -35q-58 0 -89 35t-19 90zM870 1333l2 15q10 55 57 91t105 36q56 0 86.5 -36t20.5 -91l-2 -15q-12 -55 -58 -90t-102 -35q-58 0 -89.5 35t-19.5 90z" />
<glyph unicode="&#xfd;" horiz-adv-x="1204" d="M128 -252q-7 43 19 84q28 40 74.5 54.5t83.5 -5.5q54 -26 115 -26q89 0 169.5 51.5t121.5 134.5q-98 -49 -207 -49q-117 0 -206.5 58t-130 157.5t-20.5 216.5l86 491q9 46 47 77.5t82 31.5q46 0 73 -31.5t20 -77.5l-88 -491q-15 -88 36 -150.5t140 -62.5t162 62.5 t90 150.5l84 491q7 34 28 58q44 51 101 51q39 0 59 -20q43 -29 33 -89l-29 -157l-110 -631q-23 -134 -109 -247.5t-211.5 -180t-259.5 -66.5q-116 0 -209 52q-37 20 -44 63zM572 1251q0 21 16 45l117 181q37 59 98 59q51 0 99.5 -25.5t48.5 -54.5q0 -30 -35 -61l-138 -131 q-35 -32 -67.5 -44t-77.5 -12q-27 0 -44 11.5t-17 31.5z" />
<glyph unicode="&#xff;" horiz-adv-x="1204" d="M128 -252q-7 43 19 84q28 40 74.5 54.5t83.5 -5.5q54 -26 115 -26q89 0 169.5 51.5t121.5 134.5q-98 -49 -207 -49q-117 0 -206.5 58t-130 157.5t-20.5 216.5l86 491q9 46 47 77.5t82 31.5q46 0 73 -31.5t20 -77.5l-88 -491q-15 -88 36 -150.5t140 -62.5t162 62.5 t90 150.5l84 491q7 34 28 58q44 51 101 51q39 0 59 -20q43 -29 33 -89l-29 -157l-110 -631q-23 -134 -109 -247.5t-211.5 -180t-259.5 -66.5q-116 0 -209 52q-37 20 -44 63zM465 1333l2 15q10 55 57 91t105 36q56 0 86 -36t20 -91l-2 -15q-12 -55 -58 -90t-102 -35 q-58 0 -89 35t-19 90zM872 1333l2 15q10 55 57 91t105 36q56 0 86.5 -36t20.5 -91l-2 -15q-12 -55 -58 -90t-102 -35q-58 0 -89.5 35t-19.5 90z" />
<glyph unicode="&#x152;" horiz-adv-x="2359" d="M90 739q26 150 102.5 282.5t192.5 235.5q112 103 253 161.5t286 58.5q139 0 258.5 -59t193.5 -161q0 -4 6 -10l13 76q9 47 47.5 80t85.5 33h670q45 0 73 -33t19 -80q-7 -47 -47.5 -81t-85.5 -34h-555l-66 -374h477q45 0 72.5 -34t19.5 -79q-7 -47 -47 -81t-86 -34h-477 l-65 -377h555q45 0 73 -33.5t19 -80.5q-7 -45 -47.5 -79t-85.5 -34h-664l-2 2l-4 -2q-47 0 -73.5 33.5t-18.5 79.5l20 114q-2 -1 -5 -4t-5 -4q-109 -101 -249 -160t-279 -59q-145 0 -265 58.5t-198 160.5t-108 235.5t-3 282.5zM324 739q-19 -103 1.5 -196t73.5 -160 q112 -147 308 -147q185 0 348 147q76 67 130 160.5t72 195.5t-2.5 196t-72.5 163q-53 69 -130 107t-169 38q-196 0 -357 -145q-77 -68 -130 -162t-72 -197z" />
<glyph unicode="&#x153;" horiz-adv-x="2160" d="M143 518q18 104 72.5 198.5t134.5 168.5q82 72 181.5 113.5t201.5 41.5t186.5 -41.5t141.5 -113.5q1 -2 13.5 -20.5t17.5 -28.5q89 96 205.5 152t240.5 56q205 0 323.5 -136.5t92.5 -346.5q0 -8 -2 -12q0 -11 -4 -19q-12 -37 -47 -60.5t-78 -23.5h-666q0 -83 45 -137 q26 -37 78 -63t106 -31q64 -5 132 15t118 65q22 21 45.5 29.5t40 6.5t33 -10t22 -13t9.5 -9q26 -29 23.5 -68.5t-31.5 -68.5q-93 -89 -191.5 -125.5t-238.5 -36.5q-122 0 -217.5 54.5t-149.5 148.5q-24 -27 -51 -51q-79 -73 -178.5 -114.5t-202.5 -41.5q-102 0 -186.5 41 t-141.5 115q-55 72 -75.5 166t-2.5 200zM365 518q-21 -130 45 -215q70 -86 178 -86q110 0 209 86q97 87 121 215q21 128 -48 213q-64 86 -176 86q-114 0 -209 -86q-96 -86 -120 -213zM1178 625h591q-4 74 -74 142.5t-194 78.5q-64 -3 -121 -25.5t-96.5 -56t-66 -69 t-39.5 -70.5z" />
<glyph unicode="&#x178;" horiz-adv-x="1466" d="M133 1335.5q15 45.5 57 73.5q43 28 88.5 20.5t67.5 -45.5l268 -483l439 483q34 38 81.5 45.5t79.5 -20.5q34 -28 33 -74t-35 -84l-526 -579l-98 -561q-7 -46 -47 -79.5t-86 -33.5q-47 0 -75 33.5t-20 79.5l101 561l-322 579q-21 39 -6 84.5zM446 1743l3 14q10 55 56.5 91 t104.5 36q56 0 86.5 -36t20.5 -91l-2 -14q-12 -55 -58 -90t-102 -35q-58 0 -89.5 35t-19.5 90zM854 1743l2 14q10 55 57 91t105 36q56 0 86 -36t20 -91l-2 -14q-12 -55 -57.5 -90t-101.5 -35q-58 0 -89.5 35t-19.5 90z" />
<glyph unicode="&#x2c6;" d="M297 1249q4 14 39 49l186 170q66 60 137 60h74q72 0 101 -60l84 -170q15 -31 10 -49q-6 -19 -26 -30t-46 -11q-45 0 -74.5 11.5t-60.5 44.5l-78 92l-135 -92q-82 -56 -168 -56q-24 0 -36.5 10.5t-6.5 30.5z" />
<glyph unicode="&#x2dc;" d="M215 1262q0 19 8 47q34 94 82.5 140t126.5 46q61 0 162 -41t133 -41q34 0 54 15t40 51q25 41 68 41q30 0 53 -20.5t23 -47.5q0 -16 -9 -47q-34 -94 -82 -140t-126 -46q-61 0 -162 40.5t-133 40.5q-34 0 -54.5 -15t-40.5 -50q-25 -41 -67 -41q-30 0 -53 20.5t-23 47.5z " />
<glyph unicode="&#x2000;" horiz-adv-x="973" />
<glyph unicode="&#x2001;" horiz-adv-x="1946" />
<glyph unicode="&#x2002;" horiz-adv-x="973" />
<glyph unicode="&#x2003;" horiz-adv-x="1946" />
<glyph unicode="&#x2004;" horiz-adv-x="648" />
<glyph unicode="&#x2005;" horiz-adv-x="486" />
<glyph unicode="&#x2006;" horiz-adv-x="324" />
<glyph unicode="&#x2007;" horiz-adv-x="324" />
<glyph unicode="&#x2008;" horiz-adv-x="243" />
<glyph unicode="&#x2009;" horiz-adv-x="389" />
<glyph unicode="&#x200a;" horiz-adv-x="108" />
<glyph unicode="&#x2010;" horiz-adv-x="835" d="M135 705q0 31 21.5 52t52.5 21h381q31 0 51.5 -21t20.5 -52t-20.5 -52.5t-51.5 -21.5h-381q-31 0 -52.5 21.5t-21.5 52.5z" />
<glyph unicode="&#x2011;" horiz-adv-x="835" d="M135 705q0 31 21.5 52t52.5 21h381q31 0 51.5 -21t20.5 -52t-20.5 -52.5t-51.5 -21.5h-381q-31 0 -52.5 21.5t-21.5 52.5z" />
<glyph unicode="&#x2012;" horiz-adv-x="835" d="M135 705q0 31 21.5 52t52.5 21h381q31 0 51.5 -21t20.5 -52t-20.5 -52.5t-51.5 -21.5h-381q-31 0 -52.5 21.5t-21.5 52.5z" />
<glyph unicode="&#x2013;" horiz-adv-x="1081" d="M154 627q12 49 55.5 83.5t91.5 34.5h639q47 0 72.5 -34.5t13.5 -83.5q-14 -48 -57 -82.5t-90 -34.5h-639q-47 0 -73 35t-13 82z" />
<glyph unicode="&#x2014;" horiz-adv-x="1839" d="M156 627q13 49 57 83.5t92 34.5h1397q48 0 72.5 -34.5t11.5 -83.5q-15 -47 -60 -82t-92 -35h-1396q-47 0 -72 35t-10 82z" />
<glyph unicode="&#x2018;" horiz-adv-x="471" d="M158 1034v21q0 202 102 299q39 40 93 64t100 24q31 0 47 -16t16 -42q0 -41 -49 -55q-145 -45 -139 -182q48 -13 82 -50t34 -89v-17q0 -59 -38.5 -98t-100.5 -39q-68 0 -107.5 48.5t-39.5 131.5z" />
<glyph unicode="&#x2019;" horiz-adv-x="471" d="M121 913q0 42 47 56q145 45 139 184q-48 11 -82.5 48t-34.5 89v17q0 59 39 98t101 39q68 0 107.5 -48.5t39.5 -131.5v-21q0 -199 -100 -299q-40 -40 -94.5 -64t-98.5 -24q-31 0 -47 15.5t-16 41.5z" />
<glyph unicode="&#x201a;" horiz-adv-x="471" d="M111 -240q0 21 13 36t34 20q145 48 139 184q-48 13 -82.5 50t-34.5 89v17q0 59 38.5 98t100.5 39q69 0 108.5 -48.5t39.5 -131.5v-23q0 -194 -100 -299q-41 -39 -95 -63.5t-98 -24.5q-31 0 -47 16t-16 41z" />
<glyph unicode="&#x201c;" horiz-adv-x="839" d="M158 1034v21q0 202 102 299q39 40 93 64t100 24q31 0 47 -16t16 -42q0 -41 -49 -55q-145 -45 -139 -182q48 -13 82 -50t34 -89v-17q0 -59 -38.5 -98t-100.5 -39q-68 0 -107.5 48.5t-39.5 131.5zM633 1034v21q0 199 100 299q40 40 94.5 64t98.5 24q31 0 48 -16t17 -42 q0 -41 -49 -55q-145 -45 -139 -182q48 -13 82.5 -50t34.5 -89v-17q0 -59 -39 -98t-101 -39q-68 0 -107.5 48.5t-39.5 131.5z" />
<glyph unicode="&#x201d;" horiz-adv-x="839" d="M121 913q0 42 47 56q145 45 139 184q-48 11 -82.5 48t-34.5 89v17q0 59 39 98t101 39q68 0 107.5 -48.5t39.5 -131.5v-21q0 -199 -100 -299q-40 -40 -94.5 -64t-98.5 -24q-31 0 -47 15.5t-16 41.5zM594 913q0 42 49 56q145 45 139 184q-48 11 -82 48t-34 89v17 q0 59 38.5 98t100.5 39q68 0 107.5 -48.5t39.5 -131.5v-21q0 -202 -102 -299q-39 -40 -93 -64t-100 -24q-31 0 -47 15.5t-16 41.5z" />
<glyph unicode="&#x201e;" horiz-adv-x="839" d="M111 -240q0 21 13 36t34 20q145 48 139 184q-48 13 -82.5 50t-34.5 89v17q0 59 38.5 98t100.5 39q69 0 108.5 -48.5t39.5 -131.5v-23q0 -194 -100 -299q-41 -39 -95 -63.5t-98 -24.5q-31 0 -47 16t-16 41zM584 -240q0 21 13.5 36t35.5 20q145 48 139 184q-48 13 -82.5 50 t-34.5 89v17q0 59 39 98t101 39q67 0 107 -49t40 -131v-23q0 -197 -102 -299q-39 -39 -93.5 -63.5t-99.5 -24.5q-31 0 -47 16t-16 41z" />
<glyph unicode="&#x2026;" horiz-adv-x="1392" d="M168 102q0 41 31 71t71 30q41 0 71 -30t30 -71q0 -40 -30 -71t-71 -31q-40 0 -71 31t-31 71zM614 102q0 41 31.5 71t71.5 30q41 0 70.5 -30t29.5 -71q0 -40 -29.5 -71t-70.5 -31q-40 0 -71.5 31t-31.5 71zM1061 102q0 41 31 71t71 30q41 0 71 -30t30 -71q0 -40 -30 -71 t-71 -31q-40 0 -71 31t-31 71z" />
<glyph unicode="&#x202f;" horiz-adv-x="389" />
<glyph unicode="&#x205f;" horiz-adv-x="486" />
<glyph unicode="&#x2122;" horiz-adv-x="1413" d="M49 1386q5 21 22 35.5t38 14.5h372q20 0 31.5 -14.5t9.5 -35.5q-4 -20 -21 -33.5t-36 -13.5h-139l-82 -469q-5 -21 -22 -35t-38 -14q-19 0 -30 14.5t-7 34.5l82 469h-141q-19 0 -30.5 13.5t-8.5 33.5zM600 872l90 517q4 20 21 33.5t37 13.5h2q24 3 34 -19l134 -243 l217 243q19 22 45 19q20 0 31 -13.5t8 -33.5l-93 -517q-3 -21 -18.5 -35t-36.5 -14q-20 0 -32 13.5t-9 35.5l64 367l-156 -174q-18 -21 -43 -21h-2q-25 0 -37 21l-94 174l-64 -367q-5 -22 -21 -35.5t-38 -13.5q-20 0 -31 13.5t-8 35.5z" />
<glyph unicode="&#x25fc;" horiz-adv-x="1013" d="M0 0v1014h1014v-1014h-1014z" />
</font>
</defs>
</svg>
